Featured TV Shows


The Kominsky Method S02E08

Posted By: Tavaz
1080p (FullHD) / WEBRip IMDb
The Kominsky Method S02E08

The Kominsky Method S02E08
WEBRip | MKV | 1920x1080 | English | H264 @ 4710 kbps | E-AC-3 @ 640 kbps | 26 min 2 s | 997 MiB
Subtitles: German, Russian, Turkish, French, English
Genre: Comedy, Drama


An aging actor, who long ago enjoyed a brush with fame, makes his living as an acting coach.

f77cf9ce4c4e4cd88b3bf9c9fd5dd061.mkv (996.8 MB)



General
Unique ID : 5251252011437147317932548276172447141 (0x3F35AB6A502E5F0F623FDC34ADD5DA5)
Complete name : ./f77cf9ce4c4e4cd88b3bf9c9fd5dd061.mkv
Format : Matroska
Format version : Version 4 / Version 2
File size : 997 MiB
Duration : 26 min 2 s
Overall bit rate mode : Variable
Overall bit rate : 5 353 kb/s
Encoded date : UTC 2019-10-25 07:02:27
Writing application : mkvmerge v37.0.0 ('Leave It') 64-bit
Writing library : libebml v1.3.9 + libmatroska v1.5.2

Video
ID : 1
Format : AVC
Format/Info : Advanced Video Codec
Format profile : High@L4
Format settings : CABAC / 4 Ref Frames
Format settings, CABAC : Yes
Format settings, RefFrames : 4 frames
Codec ID : V_MPEG4/ISO/AVC
Duration : 26 min 2 s
Bit rate mode : Variable
Bit rate : 4 710 kb/s
Maximum bit rate : 20.0 Mb/s
Width : 1 920 pixels
Height : 1 080 pixels
Display aspect ratio : 16:9
Frame rate mode : Constant
Frame rate : 23.976 (24000/1001) FPS
Color space : YUV
Chroma subsampling : 4:2:0
Bit depth : 8 bits
Scan type : Progressive
Bits/(Pixel*Frame) : 0.095
Stream size : 877 MiB (88%)
Writing library : x264 core 148 r2715 7e75228
Encoding settings : cabac=1 / ref=4 / deblock=1:0:0 / analyse=0x3:0x111 / me=umh / subme=10 / psy=1 / psy_rd=1.00:0.00 / mixed_ref=1 / me_range=120 / chroma_me=1 / trellis=2 / 8x8dct=1 / cqm=0 / deadzone=21,11 / fast_pskip=1 / chroma_qp_offset=-2 / threads=8 / lookahead_threads=2 / sliced_threads=0 / nr=0 / decimate=1 / interlaced=0 / bluray_compat=0 / stitchable=1 / constrained_intra=0 / bframes=16 / b_pyramid=2 / b_adapt=2 / b_bias=0 / direct=3 / weightb=1 / open_gop=0 / weightp=2 / keyint=240 / keyint_min=121 / scenecut=0 / intra_refresh=0 / rc_lookahead=240 / rc=crf / mbtree=1 / crf=16.0 / qcomp=0.50 / qpmin=6 / qpmax=51 / qpstep=4 / vbv_maxrate=20000 / vbv_bufsize=25000 / crf_max=0.0 / nal_hrd=vbr / filler=0 / ip_ratio=1.40 / aq=1:0.80
Language : English
Default : Yes
Forced : No

Audio
ID : 2
Format : E-AC-3
Format/Info : Enhanced Audio Coding 3
Format settings, Endianness : Big
Codec ID : A_EAC3
Duration : 26 min 2 s
Bit rate mode : Constant
Bit rate : 640 kb/s
Channel(s) : 6 channels
Channel positions : Front: L C R, Side: L R, LFE
Sampling rate : 48.0 kHz
Frame rate : 187.500 FPS (256 SPF)
Compression mode : Lossy
Stream size : 119 MiB (12%)
Title : English
Language : English
Service kind : Complete Main
Default : Yes
Forced : No

Text #1
ID : 3
Format : UTF-8
Codec ID : S_TEXT/UTF8
Codec ID/Info : UTF-8 Plain Text
Duration : 24 min 9 s
Bit rate : 105 b/s
Count of elements : 580
Stream size : 18.7 KiB (0%)
Title : English (SDH)
Language : English
Default : No
Forced : No

Text #2
ID : 4
Format : UTF-8
Codec ID : S_TEXT/UTF8
Codec ID/Info : UTF-8 Plain Text
Duration : 25 min 6 s
Bit rate : 94 b/s
Count of elements : 535
Stream size : 17.5 KiB (0%)
Title : French
Language : French
Default : No
Forced : No

Text #3
ID : 5
Format : UTF-8
Codec ID : S_TEXT/UTF8
Codec ID/Info : UTF-8 Plain Text
Duration : 25 min 6 s
Bit rate : 88 b/s
Count of elements : 529
Stream size : 16.3 KiB (0%)
Title : German
Language : German
Default : No
Forced : No

Text #4
ID : 6
Format : UTF-8
Codec ID : S_TEXT/UTF8
Codec ID/Info : UTF-8 Plain Text
Duration : 25 min 6 s
Bit rate : 144 b/s
Count of elements : 534
Stream size : 26.7 KiB (0%)
Title : Russian
Language : Russian
Default : No
Forced : No

Text #5
ID : 7
Format : UTF-8
Codec ID : S_TEXT/UTF8
Codec ID/Info : UTF-8 Plain Text
Duration : 25 min 6 s
Bit rate : 95 b/s
Count of elements : 541
Stream size : 17.6 KiB (0%)
Title : Turkish
Language : Turkish
Default : No
Forced : No





The Kominsky Method S02E08


The Kominsky Method S02E08


The Kominsky Method S02E08


The Kominsky Method S02E08


The Kominsky Method S02E08

All episodes