Featured TV Shows


The Last Ship S04E10

Posted By: Tavaz
1080p (FullHD) / BDRip IMDb
The Last Ship S04E10

The Last Ship S04E10
BDRip | MKV | 1920x1080 | English | H264 @ 8292 kbps | AC-3 @ 640 kbps | 42 min 17 s | 2.64 GiB
Genre: Drama


Their mission is simple: Find a cure. Stop the virus. Save the world. When a global pandemic wipes out eighty percent of the planet's population, the crew of a lone naval destroyer must find a way to pull humanity from the brink of extinction.

The.Last.Ship.S04E10.1080p.BluRay.x264-YELLOWBiRD.sub (3.3 MB)
The.Last.Ship.S04E10.1080p.BluRay.x264-YELLOWBiRD.idx (24.0 KB)
The.Last.Ship.S04E10.1080p.BluRay.x264-YELLOWBiRD.mkv (2.6 GB)



General
Unique ID : 333824039126823477696912740763434568526 (0xFB242BDB0ABBB8D9B263539CDF894B4E)
Complete name : ./The.Last.Ship.S04E10.1080p.BluRay.x264-YELLOWBiRD.mkv
Format : Matroska
Format version : Version 4 / Version 2
File size : 2.64 GiB
Duration : 42 min 17 s
Overall bit rate : 8 934 kb/s
Encoded date : UTC 2018-06-04 22:49:42
Writing application : mkvmerge v23.0.0 ('The Bride Said No') 64-bit
Writing library : libebml v1.3.6 + libmatroska v1.4.9

Video
ID : 1
Format : AVC
Format/Info : Advanced Video Codec
Format profile : High@L4.1
Format settings : CABAC / 4 Ref Frames
Format settings, CABAC : Yes
Format settings, RefFrames : 4 frames
Codec ID : V_MPEG4/ISO/AVC
Duration : 42 min 17 s
Bit rate : 8 292 kb/s
Width : 1 920 pixels
Height : 1 080 pixels
Display aspect ratio : 16:9
Frame rate mode : Constant
Frame rate : 23.976 (24000/1001) FPS
Color space : YUV
Chroma subsampling : 4:2:0
Bit depth : 8 bits
Scan type : Progressive
Bits/(Pixel*Frame) : 0.167
Stream size : 2.45 GiB (93%)
Writing library : x264 core 155 r2901 7d0ff22
Encoding settings : cabac=1 / ref=4 / deblock=1:-3:-3 / analyse=0x3:0x113 / me=umh / subme=8 / psy=1 / psy_rd=1.00:0.25 / mixed_ref=1 / me_range=24 / chroma_me=1 / trellis=1 / 8x8dct=1 / cqm=0 / deadzone=21,11 / fast_pskip=1 / chroma_qp_offset=-4 / threads=34 / lookahead_threads=5 / sliced_threads=0 / nr=0 / decimate=1 / interlaced=0 / bluray_compat=0 / constrained_intra=0 / bframes=3 / b_pyramid=2 / b_adapt=1 / b_bias=0 / direct=3 / weightb=1 / open_gop=0 / weightp=2 / keyint=240 / keyint_min=24 / scenecut=40 / intra_refresh=0 / rc_lookahead=50 / rc=2pass / mbtree=1 / bitrate=8292 / ratetol=1.0 / qcomp=0.60 / qpmin=0 / qpmax=69 / qpstep=4 / cplxblur=20.0 / qblur=0.5 / ip_ratio=1.40 / aq=1:0.75
Default : Yes
Forced : No

Audio
ID : 2
Format : AC-3
Format/Info : Audio Coding 3
Format settings, Endianness : Big
Codec ID : A_AC3
Duration : 42 min 17 s
Bit rate mode : Constant
Bit rate : 640 kb/s
Channel(s) : 6 channels
Channel positions : Front: L C R, Side: L R, LFE
Sampling rate : 48.0 kHz
Frame rate : 31.250 FPS (1536 SPF)
Bit depth : 16 bits
Compression mode : Lossy
Stream size : 194 MiB (7%)
Language : English
Service kind : Complete Main
Default : Yes
Forced : No

Menu
00:00:00.000 : en:00:00:00.000
00:03:50.772 : en:00:03:50.772
00:07:27.030 : en:00:07:27.030
00:13:54.459 : en:00:13:54.459
00:19:48.604 : en:00:19:48.604
00:27:22.975 : en:00:27:22.975
00:37:51.561 : en:00:37:51.561
00:41:41.207 : en:00:41:41.207





The Last Ship S04E10


The Last Ship S04E10


The Last Ship S04E10


The Last Ship S04E10


The Last Ship S04E10

All episodes