Featured TV Shows


The Leftovers S03E04

Posted By: Tavaz
SD / WEB-DL IMDb
The Leftovers S03E04

The Leftovers S03E04
WEB-DL | MKV | 720x404 | Italian | H264 @ 1115 kbps | AAC @ 111 kbps | 54 min 43 s | 500 MiB
Subtitles: Italian
Genre: Drama

When 2% of the world's population abruptly disappears without explanation, the world struggles to understand just what they're supposed to do about it. The drama series 'The Leftovers' is the story of the people who didn't make the cut.

Based on the bestselling novel by Tom Perrotta, 'The Leftovers' follows Kevin Garvey, a father of two and the chief of police in a small New York suburb, as he tries to maintain some semblance of normalcy when the notion no longer applies.

The.Leftovers.3x04.La.Relazione.ITA.WEBMux.x264-NovaRip.mkv (499.8 MB)



General
Unique ID : 22215023326433362971057723227002289661 (0x10B67536929EF299A702347F504EBDFD)
Complete name : ./The.Leftovers.3x04.La.Relazione.ITA.WEBMux.x264-NovaRip.mkv
Format : Matroska
Format version : Version 2
File size : 500 MiB
Duration : 54 min 43 s
Overall bit rate : 1 277 kb/s
Encoded date : UTC 2017-06-21 05:20:33
Writing application : mkvmerge v8.5.2 ('Crosses') 64bit
Writing library : libebml v1.3.3 + libmatroska v1.4.4

Video
ID : 1
Format : AVC
Format/Info : Advanced Video Codec
Format profile : High@L3.1
Format settings : CABAC / 6 Ref Frames
Format settings, CABAC : Yes
Format settings, RefFrames : 6 frames
Codec ID : V_MPEG4/ISO/AVC
Duration : 54 min 43 s
Bit rate : 1 115 kb/s
Width : 720 pixels
Height : 404 pixels
Display aspect ratio : 16:9
Frame rate mode : Constant
Frame rate : 25.000 FPS
Original frame rate : 23.976 (24000/1001) FPS
Color space : YUV
Chroma subsampling : 4:2:0
Bit depth : 8 bits
Scan type : Progressive
Bits/(Pixel*Frame) : 0.153
Stream size : 455 MiB (91%)
Writing library : x264 core 148 r2762 90a61ec
Encoding settings : cabac=1 / ref=6 / deblock=1:-2:-2 / analyse=0x3:0x133 / me=umh / subme=7 / psy=1 / psy_rd=1.00:0.00 / mixed_ref=1 / me_range=16 / chroma_me=1 / trellis=2 / 8x8dct=1 / cqm=0 / deadzone=21,11 / fast_pskip=0 / chroma_qp_offset=-2 / threads=6 / lookahead_threads=1 / sliced_threads=0 / nr=0 / decimate=1 / interlaced=0 / bluray_compat=0 / constrained_intra=0 / bframes=5 / b_pyramid=2 / b_adapt=2 / b_bias=0 / direct=3 / weightb=1 / open_gop=0 / weightp=2 / keyint=250 / keyint_min=23 / scenecut=40 / intra_refresh=0 / rc_lookahead=40 / rc=2pass / mbtree=1 / bitrate=1115 / ratetol=1.0 / qcomp=0.60 / qpmin=0 / qpmax=69 / qpstep=4 / cplxblur=20.0 / qblur=0.5 / ip_ratio=1.40 / aq=1:1.00
Language : English
Default : Yes
Forced : Yes

Audio
ID : 2
Format : AAC
Format/Info : Advanced Audio Codec
Format profile : LC
Codec ID : A_AAC-2
Duration : 54 min 43 s
Bit rate : 112 kb/s
Channel(s) : 2 channels
Channel positions : Front: L R
Sampling rate : 48.0 kHz
Frame rate : 46.875 FPS (1024 SPF)
Compression mode : Lossy
Delay relative to video : 9 ms
Stream size : 43.8 MiB (9%)
Title : ITA
Language : Italian
Default : Yes
Forced : Yes

Text
ID : 3
Format : UTF-8
Codec ID : S_TEXT/UTF8
Codec ID/Info : UTF-8 Plain Text
Duration : 54 min 35 s
Bit rate : 3 b/s
Count of elements : 43
Stream size : 1.50 KiB (0%)
Title : ITA - Forced
Language : Italian
Default : Yes
Forced : Yes





The Leftovers S03E04


The Leftovers S03E04


The Leftovers S03E04


The Leftovers S03E04


The Leftovers S03E04

All episodes