Featured TV Shows


The Magicians S05E01

Posted By: Tavaz
1080p (FullHD) / WEBRip IMDb
The Magicians S05E01

The Magicians S05E01
WEBRip | MKV | 1920x1080 | English | H264 @ 6636 kbps | E-AC-3 @ 640 kbps | 45 min 40 s | 2.32 GiB
Subtitles: English
Genre: Drama, Fantasy, Horror


Brakebills University is a secret institution specializing in magic. There, amidst an unorthodox education of spellcasting, a group of twenty-something friends soon discover that a magical fantasy world they read about as children is all too real— and poses grave danger to humanity.

9f79029442bd41438e535821e381904b.mkv (2.3 GB)



General
Unique ID : 233460155521372165187646888257513888492 (0xAFA2CA59E1CDBBD15302D8D3FDA89AEC)
Complete name : ./9f79029442bd41438e535821e381904b.mkv
Format : Matroska
Format version : Version 4 / Version 2
File size : 2.32 GiB
Duration : 45 min 40 s
Overall bit rate : 7 279 kb/s
Encoded date : UTC 2020-01-16 08:24:15
Writing application : mkvmerge v41.0.0 ('Smarra') 64-bit
Writing library : libebml v1.3.9 + libmatroska v1.5.2

Video
ID : 1
Format : AVC
Format/Info : Advanced Video Codec
Format profile : High@L4
Format settings : CABAC / 4 Ref Frames
Format settings, CABAC : Yes
Format settings, RefFrames : 4 frames
Codec ID : V_MPEG4/ISO/AVC
Duration : 45 min 40 s
Bit rate mode : Constant
Bit rate : 6 637 kb/s
Nominal bit rate : 10 000 kb/s
Width : 1 920 pixels
Height : 1 080 pixels
Display aspect ratio : 16:9
Frame rate mode : Constant
Frame rate : 23.976 (24000/1001) FPS
Color space : YUV
Chroma subsampling : 4:2:0
Bit depth : 8 bits
Scan type : Progressive
Bits/(Pixel*Frame) : 0.133
Stream size : 2.12 GiB (91%)
Language : English
Default : Yes
Forced : No
Color range : Limited
Color primaries : BT.709
Transfer characteristics : BT.709
Matrix coefficients : BT.709

Audio
ID : 2
Format : E-AC-3
Format/Info : Enhanced Audio Coding 3
Format settings, Endianness : Big
Codec ID : A_EAC3
Duration : 45 min 40 s
Bit rate mode : Constant
Bit rate : 640 kb/s
Channel(s) : 6 channels
Channel positions : Front: L C R, Side: L R, LFE
Sampling rate : 48.0 kHz
Frame rate : 187.500 FPS (256 SPF)
Compression mode : Lossy
Stream size : 209 MiB (9%)
Language : English
Service kind : Complete Main
Default : Yes
Forced : No

Text
ID : 3
Format : UTF-8
Codec ID : S_TEXT/UTF8
Codec ID/Info : UTF-8 Plain Text
Duration : 44 min 0 s
Bit rate : 82 b/s
Count of elements : 913
Stream size : 26.6 KiB (0%)
Language : English
Default : No
Forced : No





The Magicians S05E01


The Magicians S05E01


The Magicians S05E01


The Magicians S05E01


The Magicians S05E01

All episodes