Featured TV Shows


The Mandalorian S01E05

Posted By: Tavaz
The Mandalorian S01E05

The Mandalorian S01E05
MOV | 1280x720 | H264 @ 675 kbps | AAC @ 238 kbps | 32 min 50 s | 216 MiB


Ein mandalorianischer Kopfgeldjäger, der sich frappierend von Boba Fett unterscheidet, geht seinem zwielichtigen Job nach, wobei gerade die Moral häufig in Konflikt mit seinen manchmal eher zweifelhaften Aufträgen gerät. Die Handlung setzt 5 Jahre nach dem Fall des Imperiums ein, der sich in „Star Wars: Episode VI – Die Rückkehr der Jedi-Ritter“ ereignete. Zu diesem Zeitpunkt sprießen die ersten Triebe der Ersten Ordnung, welche sich sukzessive zu einer dominanten Macht im Universum erheben wird. Im Hintergrund werden entsprechen fleißig Pläne auf politischer Ebene gesponnen. Die Wege des Mandalorianers und von dem ehemaligen imperiale Sektorgouverneur Moff Gideo kreuzen sich immer wieder – und es entsteht eine bitterböse Feindschaft zwischen den beiden.

The.Mandalorian.S01E05.German.SD.mp4 (216.0 MB)



General
Complete name : ./The.Mandalorian.S01E05.German.SD.mp4
Format : MPEG-4
Format profile : Base Media
Codec ID : isom (isom/iso2/avc1/mp41)
File size : 216 MiB
Duration : 32 min 50 s
Overall bit rate mode : Variable
Overall bit rate : 919 kb/s
Writing application : Lavf57.71.100

Video
ID : 1
Format : AVC
Format/Info : Advanced Video Codec
Format profile : High@L3.1
Format settings : CABAC / 4 Ref Frames
Format settings, CABAC : Yes
Format settings, RefFrames : 4 frames
Codec ID : avc1
Codec ID/Info : Advanced Video Coding
Duration : 32 min 50 s
Bit rate : 675 kb/s
Width : 1 280 pixels
Height : 720 pixels
Display aspect ratio : 16:9
Frame rate mode : Constant
Frame rate : 23.976 (24000/1001) FPS
Color space : YUV
Chroma subsampling : 4:2:0
Bit depth : 8 bits
Scan type : Progressive
Bits/(Pixel*Frame) : 0.031
Stream size : 159 MiB (73%)
Writing library : x264 core 152 r19 ba24899
Encoding settings : cabac=1 / ref=2 / deblock=1:0:0 / analyse=0x3:0x113 / me=hex / subme=6 / psy=1 / psy_rd=1.00:0.00 / mixed_ref=1 / me_range=16 / chroma_me=1 / trellis=1 / 8x8dct=1 / cqm=0 / deadzone=21,11 / fast_pskip=1 / chroma_qp_offset=-2 / threads=22 / lookahead_threads=3 / sliced_threads=0 / nr=0 / decimate=1 / interlaced=0 / bluray_compat=0 / constrained_intra=0 / bframes=3 / b_pyramid=2 / b_adapt=1 / b_bias=0 / direct=1 / weightb=1 / open_gop=0 / weightp=1 / keyint=120 / keyint_min=12 / scenecut=40 / intra_refresh=0 / rc_lookahead=30 / rc=crf / mbtree=1 / crf=23.0 / qcomp=0.60 / qpmin=0 / qpmax=69 / qpstep=4 / vbv_maxrate=2600 / vbv_bufsize=5200 / crf_max=0.0 / nal_hrd=none / filler=0 / ip_ratio=1.40 / aq=1:1.00

Audio
ID : 2
Format : AAC
Format/Info : Advanced Audio Codec
Format profile : LC
Codec ID : mp4a-40-2
Duration : 32 min 50 s
Duration_LastFrame : -19 ms
Bit rate mode : Variable
Bit rate : 238 kb/s
Maximum bit rate : 256 kb/s
Channel(s) : 2 channels
Channel positions : Front: L R
Sampling rate : 44.1 kHz
Frame rate : 43.066 FPS (1024 SPF)
Compression mode : Lossy
Stream size : 56.0 MiB (26%)
Default : Yes
Alternate group : 1





The Mandalorian S01E05


The Mandalorian S01E05


The Mandalorian S01E05


The Mandalorian S01E05


The Mandalorian S01E05

All episodes