Featured TV Shows


The Mandalorian S01E06

Posted By: Tavaz
1080p (FullHD) / WEBRip IMDb
The Mandalorian S01E06

The Mandalorian S01E06
WEBRip | MKV | 1920x800 | English | H264 @ 11426 kbps | AC-3 @ 384 kbps | 40 min 17 s | 3.32 GiB


Set after the fall of the Empire and before the emergence of the First Order, we follow the travails of a lone gunfighter in the outer reaches of the galaxy far from the authority of the New Republic.

cfa2fc0ad997430eb701d38cfa599959.mkv (3.3 GB)



General
Unique ID : 166032207235451374800574717935575384100 (0x7CE8A3D4BAC7E6DE005243FE8D444024)
Complete name : ./cfa2fc0ad997430eb701d38cfa599959.mkv
Format : Matroska
Format version : Version 4 / Version 2
File size : 3.32 GiB
Duration : 40 min 17 s
Overall bit rate : 11.8 Mb/s
Movie name : EVO
Encoded date : UTC 2019-12-13 08:42:07
Writing application : mkvmerge v30.1.0 ('Forever And More') 64-bit
Writing library : libebml v1.3.6 + libmatroska v1.4.9

Video
ID : 1
Format : AVC
Format/Info : Advanced Video Codec
Format profile : High@L4
Format settings : CABAC / 4 Ref Frames
Format settings, CABAC : Yes
Format settings, RefFrames : 4 frames
Codec ID : V_MPEG4/ISO/AVC
Duration : 40 min 17 s
Bit rate : 11.4 Mb/s
Width : 1 920 pixels
Height : 800 pixels
Display aspect ratio : 2.40:1
Frame rate mode : Constant
Frame rate : 23.976 (24000/1001) FPS
Color space : YUV
Chroma subsampling : 4:2:0
Bit depth : 8 bits
Scan type : Progressive
Bits/(Pixel*Frame) : 0.310
Stream size : 3.22 GiB (97%)
Default : Yes
Forced : No

Audio
ID : 2
Format : AC-3
Format/Info : Audio Coding 3
Format settings, Endianness : Big
Codec ID : A_AC3
Duration : 40 min 17 s
Bit rate mode : Constant
Bit rate : 384 kb/s
Channel(s) : 6 channels
Channel positions : Front: L C R, Side: L R, LFE
Sampling rate : 48.0 kHz
Frame rate : 31.250 FPS (1536 SPF)
Bit depth : 16 bits
Compression mode : Lossy
Delay relative to video : 74 ms
Stream size : 111 MiB (3%)
Language : English
Service kind : Complete Main
Default : Yes
Forced : No





The Mandalorian S01E06


The Mandalorian S01E06


The Mandalorian S01E06


The Mandalorian S01E06


The Mandalorian S01E06

All episodes