Featured TV Shows


The Mandalorian S01E06

Posted By: Tavaz
720p (HD) / WEBRip IMDb
The Mandalorian S01E06

The Mandalorian S01E06
WEBRip | MKV | 1280x720 | English | H264 @ 4240 kbps | E-AC-3 @ 768 kbps | 41 min 3 s | 1.44 GiB
Subtitles: Swedish, Danish, Dutch, Finnish, Portuguese, German, English, French, Norwegian, Spanish, Polish, Italian


Set after the fall of the Empire and before the emergence of the First Order, we follow the travails of a lone gunfighter in the outer reaches of the galaxy far from the authority of the New Republic.

67f7ef1c9b3d4c1dbb88e40e6cbcdc95.mkv (1.4 GB)



General
Unique ID : 190291947838982746108723577437084502289 (0x8F28E563A80E89F1AACCA2ED8B58C911)
Complete name : ./67f7ef1c9b3d4c1dbb88e40e6cbcdc95.mkv
Format : Matroska
Format version : Version 4 / Version 2
File size : 1.44 GiB
Duration : 41 min 3 s
Overall bit rate mode : Variable
Overall bit rate : 5 011 kb/s
Encoded date : UTC 2019-12-13 08:13:40
Writing application : mkvmerge v30.1.0 ('Forever And More') 64-bit
Writing library : libebml v1.3.6 + libmatroska v1.4.9

Video
ID : 1
Format : AVC
Format/Info : Advanced Video Codec
Format profile : High@L3.1
Format settings : CABAC / 4 Ref Frames
Format settings, CABAC : Yes
Format settings, RefFrames : 4 frames
Codec ID : V_MPEG4/ISO/AVC
Duration : 41 min 3 s
Bit rate mode : Variable
Bit rate : 4 240 kb/s
Maximum bit rate : 6 375 kb/s
Width : 1 280 pixels
Height : 720 pixels
Display aspect ratio : 16:9
Frame rate mode : Constant
Frame rate : 23.976 (24000/1001) FPS
Color space : YUV
Chroma subsampling : 4:2:0
Bit depth : 8 bits
Scan type : Progressive
Bits/(Pixel*Frame) : 0.192
Stream size : 1.22 GiB (85%)
Language : English
Default : Yes
Forced : No
Color range : Limited
Color primaries : BT.709
Transfer characteristics : BT.709
Matrix coefficients : BT.709

Audio
ID : 2
Format : E-AC-3
Format/Info : Enhanced Audio Coding 3
Format profile : E-AC-3+Atmos / E-AC-3
Format settings, Endianness : Big
Codec ID : A_EAC3
Duration : 41 min 3 s
Bit rate mode : Constant
Bit rate : 768 kb/s
Channel(s) : 15 objects / 6 channels
Channel positions : 15 objects / Front: L C R, Side: L R, LFE
Sampling rate : 48.0 kHz
Frame rate : 187.500 FPS (256 SPF)
Compression mode : Lossy
Stream size : 226 MiB (15%)
Language : English
Service kind : Complete Main
Default : Yes
Forced : No

Text #1
ID : 3
Format : UTF-8
Codec ID : S_TEXT/UTF8
Codec ID/Info : UTF-8 Plain Text
Duration : 37 min 43 s
Bit rate : 33 b/s
Count of elements : 272
Stream size : 9.31 KiB (0%)
Title : Dansk
Language : Danish
Default : No
Forced : No

Text #2
ID : 4
Format : UTF-8
Codec ID : S_TEXT/UTF8
Codec ID/Info : UTF-8 Plain Text
Duration : 37 min 42 s
Bit rate : 34 b/s
Count of elements : 355
Stream size : 9.61 KiB (0%)
Title : Deutsch
Language : German
Default : No
Forced : No

Text #3
ID : 5
Format : UTF-8
Codec ID : S_TEXT/UTF8
Codec ID/Info : UTF-8 Plain Text
Duration : 38 min 0 s
Bit rate : 48 b/s
Count of elements : 453
Stream size : 13.6 KiB (0%)
Title : English [CC]
Language : English
Default : No
Forced : No

Text #4
ID : 6
Format : UTF-8
Codec ID : S_TEXT/UTF8
Codec ID/Info : UTF-8 Plain Text
Duration : 37 min 42 s
Bit rate : 33 b/s
Count of elements : 349
Stream size : 9.27 KiB (0%)
Title : Español
Language : Spanish
Default : No
Forced : No

Text #5
ID : 7
Format : UTF-8
Codec ID : S_TEXT/UTF8
Codec ID/Info : UTF-8 Plain Text
Duration : 37 min 43 s
Bit rate : 32 b/s
Count of elements : 332
Stream size : 9.11 KiB (0%)
Title : Français
Language : French
Default : No
Forced : No

Text #6
ID : 8
Format : UTF-8
Codec ID : S_TEXT/UTF8
Codec ID/Info : UTF-8 Plain Text
Duration : 37 min 42 s
Bit rate : 33 b/s
Count of elements : 348
Stream size : 9.24 KiB (0%)
Title : Italiano
Language : Italian
Default : No
Forced : No

Text #7
ID : 9
Format : UTF-8
Codec ID : S_TEXT/UTF8
Codec ID/Info : UTF-8 Plain Text
Duration : 37 min 42 s
Bit rate : 34 b/s
Count of elements : 300
Stream size : 9.60 KiB (0%)
Title : Nederlands
Language : Dutch
Default : No
Forced : No

Text #8
ID : 10
Format : UTF-8
Codec ID : S_TEXT/UTF8
Codec ID/Info : UTF-8 Plain Text
Duration : 37 min 42 s
Bit rate : 30 b/s
Count of elements : 349
Stream size : 8.54 KiB (0%)
Title : Norsk
Language : Norwegian
Default : No
Forced : No

Text #9
ID : 11
Format : UTF-8
Codec ID : S_TEXT/UTF8
Codec ID/Info : UTF-8 Plain Text
Duration : 37 min 42 s
Bit rate : 34 b/s
Count of elements : 347
Stream size : 9.58 KiB (0%)
Title : Polski
Language : Polish
Default : No
Forced : No

Text #10
ID : 12
Format : UTF-8
Codec ID : S_TEXT/UTF8
Codec ID/Info : UTF-8 Plain Text
Duration : 37 min 42 s
Bit rate : 36 b/s
Count of elements : 347
Stream size : 9.97 KiB (0%)
Title : Português
Language : Portuguese
Default : No
Forced : No

Text #11
ID : 13
Format : UTF-8
Codec ID : S_TEXT/UTF8
Codec ID/Info : UTF-8 Plain Text
Duration : 37 min 42 s
Bit rate : 36 b/s
Count of elements : 348
Stream size : 10.1 KiB (0%)
Title : Português (Brasil)
Language : Portuguese
Default : No
Forced : No

Text #12
ID : 14
Format : UTF-8
Codec ID : S_TEXT/UTF8
Codec ID/Info : UTF-8 Plain Text
Duration : 37 min 42 s
Bit rate : 31 b/s
Count of elements : 349
Stream size : 8.75 KiB (0%)
Title : Suomi
Language : Finnish
Default : No
Forced : No

Text #13
ID : 15
Format : UTF-8
Codec ID : S_TEXT/UTF8
Codec ID/Info : UTF-8 Plain Text
Duration : 37 min 42 s
Bit rate : 35 b/s
Count of elements : 284
Stream size : 9.82 KiB (0%)
Title : Svenska
Language : Swedish
Default : No
Forced : No





The Mandalorian S01E06


The Mandalorian S01E06


The Mandalorian S01E06


The Mandalorian S01E06


The Mandalorian S01E06

All episodes