Featured TV Shows


The Oath S01E05

Posted By: Tavaz
1080p (FullHD) / WEB-DL IMDb
The Oath S01E05

The Oath S01E05
WEB-DL | MKV | 1920x1080 | English | H264 @ 8585 kbps | E-AC-3 @ 640 kbps | 43 min 32 s | 2.81 GiB
Subtitles: English
Genre: Drama


Explore a gang world we've never seen before: gangs that are made up of the very men and women sworn to uphold the law – cops. Only select officers make the cut, but once inside, gang members will do what they must to protect each other from enemies inside and outside their ranks.

1bee6a0c571f47ff88e57227289510e4.mkv (2.8 GB)



General
Unique ID : 151528246577161020992744803854425550424 (0x71FF475C2EBE45BF3B9EBFA983606E58)
Complete name : ./1bee6a0c571f47ff88e57227289510e4.mkv
Format : Matroska
Format version : Version 4 / Version 2
File size : 2.81 GiB
Duration : 43 min 32 s
Overall bit rate : 9 228 kb/s
Encoded date : UTC 2019-04-22 17:57:51
Writing application : mkvmerge v30.1.0 ('Forever And More') 64-bit
Writing library : libebml v1.3.6 + libmatroska v1.4.9

Video
ID : 1
Format : AVC
Format/Info : Advanced Video Codec
Format profile : High@L4
Format settings : CABAC / 4 Ref Frames
Format settings, CABAC : Yes
Format settings, RefFrames : 4 frames
Codec ID : V_MPEG4/ISO/AVC
Duration : 43 min 32 s
Bit rate mode : Constant
Bit rate : 8 586 kb/s
Nominal bit rate : 10 000 kb/s
Width : 1 920 pixels
Height : 1 080 pixels
Display aspect ratio : 16:9
Frame rate mode : Constant
Frame rate : 23.976 (24000/1001) FPS
Color space : YUV
Chroma subsampling : 4:2:0
Bit depth : 8 bits
Scan type : Progressive
Bits/(Pixel*Frame) : 0.173
Stream size : 2.61 GiB (93%)
Default : Yes
Forced : No
Color range : Limited
Color primaries : BT.709
Transfer characteristics : BT.709
Matrix coefficients : BT.709

Audio
ID : 2
Format : E-AC-3
Format/Info : Enhanced Audio Coding 3
Format settings, Endianness : Big
Codec ID : A_EAC3
Duration : 43 min 32 s
Bit rate mode : Constant
Bit rate : 640 kb/s
Channel(s) : 6 channels
Channel positions : Front: L C R, Side: L R, LFE
Sampling rate : 48.0 kHz
Frame rate : 187.500 FPS (256 SPF)
Compression mode : Lossy
Stream size : 199 MiB (7%)
Language : English
Service kind : Complete Main
Default : Yes
Forced : No

Text
ID : 3
Format : UTF-8
Codec ID : S_TEXT/UTF8
Codec ID/Info : UTF-8 Plain Text
Duration : 41 min 36 s
Bit rate : 57 b/s
Count of elements : 584
Stream size : 17.5 KiB (0%)
Title : SDH
Language : English
Default : No
Forced : No





The Oath S01E05


The Oath S01E05


The Oath S01E05


The Oath S01E05


The Oath S01E05

All episodes