Featured TV Shows


The Oath S01E08

Posted By: Tavaz
SD / HDTV IMDb
The Oath S01E08

The Oath S01E08
WEB-DL | MKV | 720x404 | German / English | H264 @ 753 kbps | AAC @ 120 kbps | 41 min 36 s | 297 MiB
Genre: Drama

Explore a gang world we've never seen before: gangs that are made up of the very men and women sworn to uphold the law – cops. Only select officers make the cut, but once inside, gang members will do what they must to protect each other from enemies inside and outside their ranks.

4sj-oath-sd-s01e08.mkv (297.1 MB)
Was.die.VAVOO.BOX.alles.kann.erfaehrst.Du.in.diesem.Video.m4v (32.2 MB)
Was.die.VAVOO.BOX.alles.kann.erfaehrst.Du.in.diesem.Video(1).m4v (32.2 MB)
Was.die.VAVOO.BOX.alles.kann.erfaehrst.Du.in.diesem.Video(2).m4v (32.2 MB)



General
Unique ID : 89873426894304311948780026755932115932 (0x439CFE0E528E647305EABB36D95253DC)
Complete name : ./The.Oath.S01E08.German.DL.HDTV.x264-4SJ/4sj-oath-sd-s01e08.mkv
Format : Matroska
Format version : Version 4 / Version 2
File size : 297 MiB
Duration : 41 min 36 s
Overall bit rate : 998 kb/s
Encoded date : UTC 2018-06-20 14:32:16
Writing application : mkvmerge v20.0.0 ('I Am The Sun') 64-bit
Writing library : libebml v1.3.5 + libmatroska v1.4.8

Video
ID : 1
Format : AVC
Format/Info : Advanced Video Codec
Format profile : High@L3.1
Format settings : CABAC / 15 Ref Frames
Format settings, CABAC : Yes
Format settings, RefFrames : 15 frames
Codec ID : V_MPEG4/ISO/AVC
Duration : 41 min 36 s
Bit rate : 753 kb/s
Width : 720 pixels
Height : 404 pixels
Display aspect ratio : 16:9
Frame rate mode : Constant
Frame rate : 25.000 FPS
Color space : YUV
Chroma subsampling : 4:2:0
Bit depth : 8 bits
Scan type : Progressive
Bits/(Pixel*Frame) : 0.104
Stream size : 224 MiB (75%)
Writing library : x264 core 155 r2901 7d0ff22
Encoding settings : cabac=1 / ref=15 / deblock=1:0:0 / analyse=0x3:0x133 / me=umh / subme=10 / psy=1 / psy_rd=1.00:0.00 / mixed_ref=1 / me_range=24 / chroma_me=1 / trellis=2 / 8x8dct=1 / cqm=0 / deadzone=21,11 / fast_pskip=0 / chroma_qp_offset=-2 / threads=13 / lookahead_threads=2 / sliced_threads=0 / nr=0 / decimate=0 / interlaced=0 / bluray_compat=0 / constrained_intra=0 / bframes=8 / b_pyramid=2 / b_adapt=2 / b_bias=0 / direct=3 / weightb=1 / open_gop=0 / weightp=2 / keyint=250 / keyint_min=25 / scenecut=40 / intra_refresh=0 / rc_lookahead=60 / rc=crf / mbtree=1 / crf=18.0 / qcomp=0.60 / qpmin=0 / qpmax=69 / qpstep=4 / ip_ratio=1.40 / aq=2:1.00
Default : Yes
Forced : No
Color range : Limited
Color primaries : BT.709
Transfer characteristics : BT.709
Matrix coefficients : BT.709

Audio #1
ID : 2
Format : AAC
Format/Info : Advanced Audio Codec
Format profile : LC
Codec ID : A_AAC-2
Duration : 41 min 36 s
Bit rate : 120 kb/s
Channel(s) : 2 channels
Channel positions : Front: L R
Sampling rate : 48.0 kHz
Frame rate : 46.875 FPS (1024 SPF)
Compression mode : Lossy
Delay relative to video : 9 ms
Stream size : 35.9 MiB (12%)
Language : German
Default : Yes
Forced : No

Audio #2
ID : 3
Format : AAC
Format/Info : Advanced Audio Codec
Format profile : LC
Codec ID : A_AAC-2
Duration : 41 min 36 s
Bit rate : 122 kb/s
Channel(s) : 2 channels
Channel positions : Front: L R
Sampling rate : 48.0 kHz
Frame rate : 46.875 FPS (1024 SPF)
Compression mode : Lossy
Delay relative to video : 9 ms
Stream size : 36.2 MiB (12%)
Language : English
Default : No
Forced : No





The Oath S01E08


The Oath S01E08


The Oath S01E08


The Oath S01E08


The Oath S01E08

All episodes