Featured TV Shows


The Oath S01E08

Posted By: Tavaz
720p (HD) / WEB-DL IMDb
The Oath S01E08

The Oath S01E08
WEB-DL | MKV | 1280x720 | English | H264 @ 4172 kbps | E-AC-3 @ 640 kbps | 43 min 25 s | 1.46 GiB
Subtitles: English
Genre: Drama


Explore a gang world we've never seen before: gangs that are made up of the very men and women sworn to uphold the law – cops. Only select officers make the cut, but once inside, gang members will do what they must to protect each other from enemies inside and outside their ranks.

ffef30a4f081461b9957d05cfb77ed7f.mkv (1.5 GB)



General
Unique ID : 276026830969425289226291053230639286843 (0xCFA8D57BE6B83D9593E6352310E40A3B)
Complete name : ./ffef30a4f081461b9957d05cfb77ed7f.mkv
Format : Matroska
Format version : Version 4 / Version 2
File size : 1.46 GiB
Duration : 43 min 25 s
Overall bit rate : 4 815 kb/s
Encoded date : UTC 2019-04-22 17:36:11
Writing application : mkvmerge v30.1.0 ('Forever And More') 64-bit
Writing library : libebml v1.3.6 + libmatroska v1.4.9

Video
ID : 1
Format : AVC
Format/Info : Advanced Video Codec
Format profile : High@L3.1
Format settings : CABAC / 4 Ref Frames
Format settings, CABAC : Yes
Format settings, RefFrames : 4 frames
Codec ID : V_MPEG4/ISO/AVC
Duration : 43 min 25 s
Bit rate mode : Constant
Bit rate : 4 173 kb/s
Nominal bit rate : 6 000 kb/s
Width : 1 280 pixels
Height : 720 pixels
Display aspect ratio : 16:9
Frame rate mode : Constant
Frame rate : 23.976 (24000/1001) FPS
Color space : YUV
Chroma subsampling : 4:2:0
Bit depth : 8 bits
Scan type : Progressive
Bits/(Pixel*Frame) : 0.189
Stream size : 1.27 GiB (87%)
Default : Yes
Forced : No
Color range : Limited
Color primaries : BT.709
Transfer characteristics : BT.709
Matrix coefficients : BT.709

Audio
ID : 2
Format : E-AC-3
Format/Info : Enhanced Audio Coding 3
Format settings, Endianness : Big
Codec ID : A_EAC3
Duration : 43 min 25 s
Bit rate mode : Constant
Bit rate : 640 kb/s
Channel(s) : 6 channels
Channel positions : Front: L C R, Side: L R, LFE
Sampling rate : 48.0 kHz
Frame rate : 187.500 FPS (256 SPF)
Compression mode : Lossy
Stream size : 199 MiB (13%)
Language : English
Service kind : Complete Main
Default : Yes
Forced : No

Text
ID : 3
Format : UTF-8
Codec ID : S_TEXT/UTF8
Codec ID/Info : UTF-8 Plain Text
Duration : 41 min 35 s
Bit rate : 56 b/s
Count of elements : 564
Stream size : 17.2 KiB (0%)
Title : SDH
Language : English
Default : No
Forced : No





The Oath S01E08


The Oath S01E08


The Oath S01E08


The Oath S01E08


The Oath S01E08

All episodes