Featured TV Shows


The Oath S01E09

Posted By: Tavaz
720p (HD) / WEB-DL IMDb
The Oath S01E09

The Oath S01E09
WEB-DL | MKV | 1280x720 | English | H264 @ 4044 kbps | E-AC-3 @ 640 kbps | 46 min 8 s | 1.51 GiB
Subtitles: English
Genre: Drama


Explore a gang world we've never seen before: gangs that are made up of the very men and women sworn to uphold the law – cops. Only select officers make the cut, but once inside, gang members will do what they must to protect each other from enemies inside and outside their ranks.

782839c858eb4a16a40e61e00e7266c5.mkv (1.5 GB)



General
Unique ID : 237664288082231977358651586479033962765 (0xB2CC7A16F6CFE1CA76709F0C9CBC510D)
Complete name : ./782839c858eb4a16a40e61e00e7266c5.mkv
Format : Matroska
Format version : Version 4 / Version 2
File size : 1.51 GiB
Duration : 46 min 8 s
Overall bit rate : 4 687 kb/s
Encoded date : UTC 2019-04-22 17:37:58
Writing application : mkvmerge v30.1.0 ('Forever And More') 64-bit
Writing library : libebml v1.3.6 + libmatroska v1.4.9

Video
ID : 1
Format : AVC
Format/Info : Advanced Video Codec
Format profile : High@L3.1
Format settings : CABAC / 4 Ref Frames
Format settings, CABAC : Yes
Format settings, RefFrames : 4 frames
Codec ID : V_MPEG4/ISO/AVC
Duration : 46 min 8 s
Bit rate mode : Constant
Bit rate : 4 045 kb/s
Nominal bit rate : 6 000 kb/s
Width : 1 280 pixels
Height : 720 pixels
Display aspect ratio : 16:9
Frame rate mode : Constant
Frame rate : 23.976 (24000/1001) FPS
Color space : YUV
Chroma subsampling : 4:2:0
Bit depth : 8 bits
Scan type : Progressive
Bits/(Pixel*Frame) : 0.183
Stream size : 1.30 GiB (86%)
Default : Yes
Forced : No
Color range : Limited
Color primaries : BT.709
Transfer characteristics : BT.709
Matrix coefficients : BT.709

Audio
ID : 2
Format : E-AC-3
Format/Info : Enhanced Audio Coding 3
Format settings, Endianness : Big
Codec ID : A_EAC3
Duration : 46 min 8 s
Bit rate mode : Constant
Bit rate : 640 kb/s
Channel(s) : 6 channels
Channel positions : Front: L C R, Side: L R, LFE
Sampling rate : 48.0 kHz
Frame rate : 187.500 FPS (256 SPF)
Compression mode : Lossy
Stream size : 211 MiB (14%)
Language : English
Service kind : Complete Main
Default : Yes
Forced : No

Text
ID : 3
Format : UTF-8
Codec ID : S_TEXT/UTF8
Codec ID/Info : UTF-8 Plain Text
Duration : 44 min 19 s
Bit rate : 53 b/s
Count of elements : 612
Stream size : 17.5 KiB (0%)
Title : SDH
Language : English
Default : No
Forced : No





The Oath S01E09


The Oath S01E09


The Oath S01E09


The Oath S01E09


The Oath S01E09

All episodes