Featured TV Shows


The Oath S01E10

Posted By: Tavaz
SD / HDTV IMDb
The Oath S01E10

The Oath S01E10
WEB-DL | MKV | 720x404 | German / English | H264 @ 833 kbps | AAC @ 119 kbps | 42 min 30 s | 327 MiB
Genre: Drama

Die Serie dreht sich um eine mit allen Wassern gewaschene Gang korrupter Polizisten. Als ihr Anführer, der Polizist Tom Hammond nach einem Gefängnisaufenthalt wieder auf freiem Fuß ist und sich wieder nach oben kämpfen will, rücken der Gang Spezialermittler des FBI auf die Pelle. Sie wollen die kriminellen Strukturen innerhalb der Polizeibehörden aufdecken und verfügen über probate Mittel, entsprechenden Druck aufzubauen. Dabei soll auch ein Undercover-Agent eingeschleust werden. Doch die kriminellen Gesetzeshüter setzen sich mit allen Mitteln zur Wehr.

Was.die.VAVOO.BOX.alles.kann.erfaehrst.Du.in.diesem.Video.m4v (32.2 MB)
Was.die.VAVOO.BOX.alles.kann.erfaehrst.Du.in.diesem.Video(1).m4v (32.2 MB)
4sj-oath-sd-s01e10.mkv (327.4 MB)
Was.die.VAVOO.BOX.alles.kann.erfaehrst.Du.in.diesem.Video(2).m4v (32.2 MB)



General
Unique ID : 95180942406637194233674090187713301508 (0x479B2EC62FE09A3AC73D9CBB657E4C04)
Complete name : ./The.Oath.S01E10.German.DL.HDTV.x264-4SJ/4sj-oath-sd-s01e10.mkv
Format : Matroska
Format version : Version 4 / Version 2
File size : 327 MiB
Duration : 42 min 30 s
Overall bit rate : 1 077 kb/s
Encoded date : UTC 2018-06-20 16:23:42
Writing application : mkvmerge v20.0.0 ('I Am The Sun') 64-bit
Writing library : libebml v1.3.5 + libmatroska v1.4.8

Video
ID : 1
Format : AVC
Format/Info : Advanced Video Codec
Format profile : High@L3.1
Format settings : CABAC / 15 Ref Frames
Format settings, CABAC : Yes
Format settings, RefFrames : 15 frames
Codec ID : V_MPEG4/ISO/AVC
Duration : 42 min 30 s
Bit rate : 833 kb/s
Width : 720 pixels
Height : 404 pixels
Display aspect ratio : 16:9
Frame rate mode : Constant
Frame rate : 25.000 FPS
Color space : YUV
Chroma subsampling : 4:2:0
Bit depth : 8 bits
Scan type : Progressive
Bits/(Pixel*Frame) : 0.115
Stream size : 253 MiB (77%)
Writing library : x264 core 155 r2901 7d0ff22
Encoding settings : cabac=1 / ref=15 / deblock=1:0:0 / analyse=0x3:0x133 / me=umh / subme=10 / psy=1 / psy_rd=1.00:0.00 / mixed_ref=1 / me_range=24 / chroma_me=1 / trellis=2 / 8x8dct=1 / cqm=0 / deadzone=21,11 / fast_pskip=0 / chroma_qp_offset=-2 / threads=13 / lookahead_threads=2 / sliced_threads=0 / nr=0 / decimate=0 / interlaced=0 / bluray_compat=0 / constrained_intra=0 / bframes=8 / b_pyramid=2 / b_adapt=2 / b_bias=0 / direct=3 / weightb=1 / open_gop=0 / weightp=2 / keyint=250 / keyint_min=25 / scenecut=40 / intra_refresh=0 / rc_lookahead=60 / rc=crf / mbtree=1 / crf=18.0 / qcomp=0.60 / qpmin=0 / qpmax=69 / qpstep=4 / ip_ratio=1.40 / aq=2:1.00
Default : Yes
Forced : No
Color range : Limited
Color primaries : BT.709
Transfer characteristics : BT.709
Matrix coefficients : BT.709

Audio #1
ID : 2
Format : AAC
Format/Info : Advanced Audio Codec
Format profile : LC
Codec ID : A_AAC-2
Duration : 42 min 30 s
Bit rate : 120 kb/s
Channel(s) : 2 channels
Channel positions : Front: L R
Sampling rate : 48.0 kHz
Frame rate : 46.875 FPS (1024 SPF)
Compression mode : Lossy
Delay relative to video : 9 ms
Stream size : 36.4 MiB (11%)
Language : German
Default : Yes
Forced : No

Audio #2
ID : 3
Format : AAC
Format/Info : Advanced Audio Codec
Format profile : LC
Codec ID : A_AAC-2
Duration : 42 min 30 s
Bit rate : 121 kb/s
Channel(s) : 2 channels
Channel positions : Front: L R
Sampling rate : 48.0 kHz
Frame rate : 46.875 FPS (1024 SPF)
Compression mode : Lossy
Delay relative to video : 9 ms
Stream size : 36.7 MiB (11%)
Language : English
Default : No
Forced : No





The Oath S01E10


The Oath S01E10


The Oath S01E10


The Oath S01E10


The Oath S01E10

All episodes