Featured TV Shows


The Originals S05E05

Posted By: Tavaz
720p (HD) / WEB-DL IMDb
The Originals S05E05

The Originals S05E05
WEB-DL | MKV | 1280x720 | English | H264 @ 2846 kbps | E-AC-3 @ 640 kbps | 42 min 22 s | 1.03 GiB
Subtitles: English
Genre: Dramma, Mistero

Niklaus Mikaelson è l'ibrido appartenente alla famiglia dei Vampiri Originali che si trasferisce dalla cittadina di Mystic Falls (Virginia) a New Orleans, città che lui e i suoi fratelli contribuirono a costruire ma che poi abbandonarono per fuggire da loro padre, che gli dava la caccia. Con il suo ritorno, Klaus scopre che Marcel, vampiro che lui stesso trasformò secoli prima, detiene il controllo del quartiere francese della città e di tutte le creature sovrannaturali che lo abitano, comprese le streghe che non possono praticare la magia senza il suo permesso. Queste ultime, guidate dalla giovane strega Sophie Deveraux, vogliono stipulare un patto con Klaus: se lui le aiuterà ad eliminare Marcel loro proteggeranno Hayley, la giovane licantropa che aspetta una figlia da lui. Klaus, spinto dalla responsabilità di padre e dalla voglia di rubare il controllo della città a Marcel e convinto dal fratello maggiore Elijah, accetta il patto e decide di rimanere a New Orleans. Mesi dopo, anche Rebekah, la sorella di Klaus ed Elijah, giunge in città e si ricongiunge con i suoi fratelli.

cdb9ae2cc2a14c6ebb8c4c23676434d3.mkv (1.0 GB)



General
Complete name : ./cdb9ae2cc2a14c6ebb8c4c23676434d3.mkv
Format : Matroska
Format version : Version 4 / Version 2
File size : 1.03 GiB
Duration : 42 min 22 s
Overall bit rate mode : Variable
Overall bit rate : 3 488 kb/s
Encoded date : UTC 2018-05-17 07:24:17
Writing application : mkvmerge v21.0.0 ('Tardigrades Will Inherit The Earth') 64-bit
Writing library : libebml v1.3.5 + libmatroska v1.4.8

Video
ID : 1
Format : AVC
Format/Info : Advanced Video Codec
Format profile : High@L3.1
Format settings : CABAC / 5 Ref Frames
Format settings, CABAC : Yes
Format settings, RefFrames : 5 frames
Codec ID : V_MPEG4/ISO/AVC
Duration : 42 min 22 s
Bit rate mode : Variable
Bit rate : 2 846 kb/s
Maximum bit rate : 4 500 kb/s
Width : 1 280 pixels
Height : 720 pixels
Display aspect ratio : 16:9
Frame rate mode : Constant
Frame rate : 23.976 (24000/1001) FPS
Color space : YUV
Chroma subsampling : 4:2:0
Bit depth : 8 bits
Scan type : Progressive
Bits/(Pixel*Frame) : 0.129
Stream size : 863 MiB (82%)
Default : Yes
Forced : No
Color range : Limited
Color primaries : BT.709
Transfer characteristics : BT.709
Matrix coefficients : BT.709

Audio
ID : 2
Format : E-AC-3
Format/Info : Enhanced Audio Coding 3
Format settings, Endianness : Big
Codec ID : A_EAC3
Duration : 42 min 22 s
Bit rate mode : Constant
Bit rate : 640 kb/s
Channel(s) : 6 channels
Channel positions : Front: L C R, Side: L R, LFE
Sampling rate : 48.0 kHz
Frame rate : 187.500 FPS (256 SPF)
Compression mode : Lossy
Stream size : 194 MiB (18%)
Language : English
Service kind : Complete Main
Default : Yes
Forced : No

Text #1
ID : 3
Format : UTF-8
Codec ID : S_TEXT/UTF8
Codec ID/Info : UTF-8 Plain Text
Duration : 41 min 32 s
Bit rate : 77 b/s
Count of elements : 784
Stream size : 23.6 KiB (0%)
Language : English
Default : No
Forced : No

Text #2
ID : 4
Format : UTF-8
Codec ID : S_TEXT/UTF8
Codec ID/Info : UTF-8 Plain Text
Duration : 41 min 48 s
Bit rate : 78 b/s
Count of elements : 825
Stream size : 24.2 KiB (0%)
Title : SDH
Language : English
Default : No
Forced : No





The Originals S05E05


The Originals S05E05


The Originals S05E05


The Originals S05E05


The Originals S05E05

All episodes