Featured TV Shows


The Originals S05E05

Posted By: Tavaz
1080p (FullHD) / WEB-DL IMDb
The Originals S05E05

The Originals S05E05
WEB-DL | MKV | 1920x1080 | H264 @ 10617 kbps | E-AC-3 @ 640 kbps | 42 min 22 s | 3.40 GiB
Genre: Dramma, Mistero

Niklaus Mikaelson è l'ibrido appartenente alla famiglia dei Vampiri Originali che si trasferisce dalla cittadina di Mystic Falls (Virginia) a New Orleans, città che lui e i suoi fratelli contribuirono a costruire ma che poi abbandonarono per fuggire da loro padre, che gli dava la caccia. Con il suo ritorno, Klaus scopre che Marcel, vampiro che lui stesso trasformò secoli prima, detiene il controllo del quartiere francese della città e di tutte le creature sovrannaturali che lo abitano, comprese le streghe che non possono praticare la magia senza il suo permesso. Queste ultime, guidate dalla giovane strega Sophie Deveraux, vogliono stipulare un patto con Klaus: se lui le aiuterà ad eliminare Marcel loro proteggeranno Hayley, la giovane licantropa che aspetta una figlia da lui. Klaus, spinto dalla responsabilità di padre e dalla voglia di rubare il controllo della città a Marcel e convinto dal fratello maggiore Elijah, accetta il patto e decide di rimanere a New Orleans. Mesi dopo, anche Rebekah, la sorella di Klaus ed Elijah, giunge in città e si ricongiunge con i suoi fratelli.

1c948067eab6428e9693f519b62b2f2f.mkv (3.4 GB)



General
Unique ID : 311157904948789742715898767588769797454 (0xEA16D5290880A925A678B2544D4E154E)
Complete name : ./1c948067eab6428e9693f519b62b2f2f.mkv
Format : Matroska
Format version : Version 4 / Version 2
File size : 3.40 GiB
Duration : 42 min 22 s
Overall bit rate mode : Variable
Overall bit rate : 11.5 Mb/s
Writing application : Lavf57.82.100
Writing library : Lavf57.82.100
ErrorDetectionType : Per level 1

Video
ID : 1
Format : AVC
Format/Info : Advanced Video Codec
Format profile : High@L4
Format settings : CABAC / 4 Ref Frames
Format settings, CABAC : Yes
Format settings, RefFrames : 4 frames
Codec ID : V_MPEG4/ISO/AVC
Duration : 42 min 22 s
Bit rate mode : Variable
Bit rate : 10.6 Mb/s
Maximum bit rate : 15.0 Mb/s
Width : 1 920 pixels
Height : 1 080 pixels
Display aspect ratio : 16:9
Frame rate mode : Constant
Frame rate : 23.976 (24000/1001) FPS
Color space : YUV
Chroma subsampling : 4:2:0
Bit depth : 8 bits
Scan type : Progressive
Bits/(Pixel*Frame) : 0.214
Stream size : 3.14 GiB (92%)
Default : Yes
Forced : No
Color range : Limited
Color primaries : BT.709
Transfer characteristics : BT.709
Matrix coefficients : BT.709

Audio
ID : 2
Format : E-AC-3
Format/Info : Enhanced Audio Coding 3
Format settings, Endianness : Big
Codec ID : A_EAC3
Duration : 42 min 22 s
Bit rate mode : Constant
Bit rate : 640 kb/s
Channel(s) : 6 channels
Channel positions : Front: L C R, Side: L R, LFE
Sampling rate : 48.0 kHz
Frame rate : 187.500 FPS (256 SPF)
Bit depth : 32 bits
Compression mode : Lossy
Stream size : 194 MiB (6%)
Service kind : Complete Main
Default : Yes
Forced : No

Text
ID : 3
Format : ASS
Codec ID : S_TEXT/ASS
Codec ID/Info : Advanced Sub Station Alpha
Duration : 41 min 34 s
Compression mode : Lossless
Writing library : Lavc57.106.101 ssa
Default : No
Forced : No





The Originals S05E05


The Originals S05E05


The Originals S05E05


The Originals S05E05


The Originals S05E05

All episodes