Featured TV Shows


The Platinum Life S01E02

Posted By: Tavaz
720p (HD) / WEB-DL IMDb
The Platinum Life S01E02

The Platinum Life S01E02
WEB-DL | MKV | 1280x720 | English | H264 @ 2954 kbps | AAC @ 64 kbps | 43 min 50 s | 947 MiB
Subtitles: English


The experiences of some of the fierce and devoted women behind music's biggest names as they navigate the ups and downs of their relationships, friendships and high-class lifestyles.

57cc29fbcd5948d69b0c03edc435f7d3.mkv (947.0 MB)



General
Unique ID : 154113659509908120843113512802090208644 (0x73F1360F2AA289CA95FB82A06B57CD84)
Complete name : ./57cc29fbcd5948d69b0c03edc435f7d3.mkv
Format : Matroska
Format version : Version 4 / Version 2
File size : 947 MiB
Duration : 43 min 50 s
Overall bit rate : 3 020 kb/s
Encoded date : UTC 2020-01-14 19:50:24
Writing application : mkvmerge v38.0.0 ('The Silent Type') 64-bit
Writing library : libebml v1.3.9 + libmatroska v1.5.2

Video
ID : 1
Format : AVC
Format/Info : Advanced Video Codec
Format profile : High@L3.1
Format settings : CABAC / 5 Ref Frames
Format settings, CABAC : Yes
Format settings, RefFrames : 5 frames
Codec ID : V_MPEG4/ISO/AVC
Duration : 43 min 50 s
Bit rate : 2 954 kb/s
Width : 1 280 pixels
Height : 720 pixels
Display aspect ratio : 16:9
Frame rate mode : Constant
Frame rate : 23.976 (24000/1001) FPS
Color space : YUV
Chroma subsampling : 4:2:0
Bit depth : 8 bits
Scan type : Progressive
Bits/(Pixel*Frame) : 0.134
Stream size : 926 MiB (98%)
Default : Yes
Forced : No

Audio
ID : 2
Format : AAC
Format/Info : Advanced Audio Codec
Format profile : HE-AAC / LC
Format settings : Explicit
Codec ID : A_AAC-2
Duration : 43 min 50 s
Bit rate : 64.0 kb/s
Channel(s) : 2 channels
Channel positions : Front: L R
Sampling rate : 48.0 kHz / 24.0 kHz
Frame rate : 23.438 FPS (1024 SPF)
Compression mode : Lossy
Stream size : 20.1 MiB (2%)
Language : English
Default : Yes
Forced : No

Text
ID : 3
Format : UTF-8
Codec ID : S_TEXT/UTF8
Codec ID/Info : UTF-8 Plain Text
Duration : 43 min 38 s
Bit rate : 120 b/s
Count of elements : 1077
Stream size : 38.6 KiB (0%)
Language : English
Default : No
Forced : No





The Platinum Life S01E02


The Platinum Life S01E02


The Platinum Life S01E02


The Platinum Life S01E02


The Platinum Life S01E02

All episodes