Featured TV Shows


The Platinum Life S01E03

Posted By: Tavaz
1080p (FullHD) / WEB-DL IMDb
The Platinum Life S01E03

The Platinum Life S01E03
WEB-DL | MKV | 1920x1080 | English | H264 @ 5915 kbps | AAC @ 64 kbps | 43 min 51 s | 1.83 GiB
Subtitles: English


The experiences of some of the fierce and devoted women behind music's biggest names as they navigate the ups and downs of their relationships, friendships and high-class lifestyles.

975e6f78c29f48c397852980338fcd5c.mkv (1.8 GB)



General
Unique ID : 9508780726807474375728931229165331768 (0x7275315F27907C57186E39322D2A538)
Complete name : ./975e6f78c29f48c397852980338fcd5c.mkv
Format : Matroska
Format version : Version 4 / Version 2
File size : 1.83 GiB
Duration : 43 min 51 s
Overall bit rate : 5 981 kb/s
Encoded date : UTC 2020-01-14 20:52:10
Writing application : mkvmerge v38.0.0 ('The Silent Type') 64-bit
Writing library : libebml v1.3.9 + libmatroska v1.5.2

Video
ID : 1
Format : AVC
Format/Info : Advanced Video Codec
Format profile : High@L4
Format settings : CABAC / 4 Ref Frames
Format settings, CABAC : Yes
Format settings, RefFrames : 4 frames
Codec ID : V_MPEG4/ISO/AVC
Duration : 43 min 51 s
Bit rate : 5 915 kb/s
Width : 1 920 pixels
Height : 1 080 pixels
Display aspect ratio : 16:9
Frame rate mode : Constant
Frame rate : 23.976 (24000/1001) FPS
Color space : YUV
Chroma subsampling : 4:2:0
Bit depth : 8 bits
Scan type : Progressive
Bits/(Pixel*Frame) : 0.119
Stream size : 1.81 GiB (99%)
Default : Yes
Forced : No

Audio
ID : 2
Format : AAC
Format/Info : Advanced Audio Codec
Format profile : HE-AAC / LC
Format settings : Explicit
Codec ID : A_AAC-2
Duration : 43 min 51 s
Bit rate : 64.0 kb/s
Channel(s) : 2 channels
Channel positions : Front: L R
Sampling rate : 48.0 kHz / 24.0 kHz
Frame rate : 23.438 FPS (1024 SPF)
Compression mode : Lossy
Stream size : 20.1 MiB (1%)
Language : English
Default : Yes
Forced : No

Text
ID : 3
Format : UTF-8
Codec ID : S_TEXT/UTF8
Codec ID/Info : UTF-8 Plain Text
Duration : 43 min 33 s
Bit rate : 121 b/s
Count of elements : 1066
Stream size : 38.9 KiB (0%)
Language : English
Default : No
Forced : No





The Platinum Life S01E03


The Platinum Life S01E03


The Platinum Life S01E03


The Platinum Life S01E03


The Platinum Life S01E03

All episodes