Featured TV Shows


The Plot Against America S01E01

Posted By: Tavaz
1080p (FullHD) / WEB-DL IMDb
The Plot Against America S01E01

The Plot Against America S01E01
WEB-DL | MKV | 1920x1080 | English | H264 @ 9282 kbps | E-AC-3 @ 640 kbps | 1 h 0 min | 4.21 GiB
Subtitles: English
Genre: Drama

An alternate American history told through the eyes of a working-class Jewish family in New Jersey, as they watch the political rise of Charles Lindbergh, an aviator-hero and xenophobic populist, who becomes president and turns the nation toward fascism.

0ff70997b8fe49f2a5d614d72d7c28fc.mkv (4.2 GB)



General
Unique ID : 200956691569634278786458269416614554353 (0x972ED9D9F30FEF6B52A6BB1611846AF1)
Complete name : ./0ff70997b8fe49f2a5d614d72d7c28fc.mkv
Format : Matroska
Format version : Version 4 / Version 2
File size : 4.21 GiB
Duration : 1 h 0 min
Overall bit rate : 9 925 kb/s
Encoded date : UTC 2020-03-17 11:22:36
Writing application : mkvmerge v44.0.0 ('Domino') 64-bit
Writing library : libebml v1.3.10 + libmatroska v1.5.2

Video
ID : 1
Format : AVC
Format/Info : Advanced Video Codec
Format profile : High@L4
Format settings : CABAC / 4 Ref Frames
Format settings, CABAC : Yes
Format settings, RefFrames : 4 frames
Codec ID : V_MPEG4/ISO/AVC
Duration : 1 h 0 min
Bit rate mode : Constant
Bit rate : 9 283 kb/s
Nominal bit rate : 10 000 kb/s
Width : 1 920 pixels
Height : 1 080 pixels
Display aspect ratio : 16:9
Frame rate mode : Constant
Frame rate : 23.976 (24000/1001) FPS
Color space : YUV
Chroma subsampling : 4:2:0
Bit depth : 8 bits
Scan type : Progressive
Bits/(Pixel*Frame) : 0.187
Stream size : 3.93 GiB (94%)
Default : Yes
Forced : No
Color range : Limited
Color primaries : BT.709
Transfer characteristics : BT.709
Matrix coefficients : BT.709

Audio
ID : 2
Format : E-AC-3
Format/Info : Enhanced Audio Coding 3
Format settings, Endianness : Big
Codec ID : A_EAC3
Duration : 1 h 0 min
Bit rate mode : Constant
Bit rate : 640 kb/s
Channel(s) : 6 channels
Channel positions : Front: L C R, Side: L R, LFE
Sampling rate : 48.0 kHz
Frame rate : 187.500 FPS (256 SPF)
Compression mode : Lossy
Delay relative to video : 28 ms
Stream size : 278 MiB (6%)
Language : English
Service kind : Complete Main
Default : Yes
Forced : No

Text
ID : 3
Format : UTF-8
Codec ID : S_TEXT/UTF8
Codec ID/Info : UTF-8 Plain Text
Duration : 1 h 0 min
Bit rate : 82 b/s
Count of elements : 1062
Stream size : 36.4 KiB (0%)
Title : SDH
Language : English
Default : No
Forced : No





The Plot Against America S01E01


The Plot Against America S01E01


The Plot Against America S01E01


The Plot Against America S01E01


The Plot Against America S01E01

All episodes