Featured TV Shows


The Reagans S01E02

Posted By: Tavaz
720p (HD) / WEBRip IMDb
The Reagans S01E02

The Reagans S01E02
WEBRip | MKV | 1280x720 | English | H264 @ 5200 kbps | E-AC-3 @ 640 kbps | 54 min 3 s | 2.25 GiB
Subtitles: English
Genre: Documentary


A four-part documentary series that explores the many surprisingly unexamined aspects of the Reagan White House, and how Nancy Reagan's paper-doll image was at odds with the power she ultimately wielded throughout her husband's presidency.

e11348663fd746698f7ec720654a786a.mkv (2.3 GB)



General
Unique ID : 172348765014881693715603828527461152917 (0x81A92A2C88A7AA50FF1AC1B5E0FDB895)
Complete name : ./e11348663fd746698f7ec720654a786a.mkv
Format : Matroska
Format version : Version 4 / Version 2
File size : 2.25 GiB
Duration : 54 min 3 s
Overall bit rate : 5 959 kb/s
Writing application : mkvmerge v49.0.0 ('Sick Of Losing Soulmates') 64-bit
Writing library : libebml v1.4.0 + libmatroska v1.6.1

Video
ID : 1
Format : AVC
Format/Info : Advanced Video Codec
Format profile : High@L3.1
Format settings : CABAC / 4 Ref Frames
Format settings, CABAC : Yes
Format settings, RefFrames : 4 frames
Format settings, GOP : M=4, N=48
Codec ID : V_MPEG4/ISO/AVC
Duration : 54 min 3 s
Bit rate mode : Constant
Bit rate : 5 200 kb/s
Nominal bit rate : 6 000 kb/s
Width : 1 280 pixels
Height : 720 pixels
Display aspect ratio : 16:9
Frame rate mode : Constant
Frame rate : 23.976 (24000/1001) FPS
Color space : YUV
Chroma subsampling : 4:2:0
Bit depth : 8 bits
Scan type : Progressive
Bits/(Pixel*Frame) : 0.235
Stream size : 1.96 GiB (87%)
Default : Yes
Forced : No
Color range : Limited
Color primaries : BT.709
Transfer characteristics : BT.709
Matrix coefficients : BT.709

Audio
ID : 2
Format : E-AC-3
Format/Info : Enhanced Audio Coding 3
Format settings, Endianness : Big
Codec ID : A_EAC3
Duration : 54 min 3 s
Bit rate mode : Constant
Bit rate : 640 kb/s
Channel(s) : 6 channels
Channel positions : Front: L C R, Side: L R, LFE
Sampling rate : 48.0 kHz
Frame rate : 187.500 FPS (256 SPF)
Compression mode : Lossy
Stream size : 247 MiB (11%)
Language : English
Service kind : Complete Main
Default : Yes
Forced : No

Text
ID : 3
Format : UTF-8
Codec ID : S_TEXT/UTF8
Codec ID/Info : UTF-8 Plain Text
Title : English
Language : English
Default : No
Forced : No





The Reagans S01E02


The Reagans S01E02


The Reagans S01E02


The Reagans S01E02


The Reagans S01E02

All episodes