Featured TV Shows


The Reagans S01E02

Posted By: Tavaz
1080p (FullHD) / WEBRip IMDb
The Reagans S01E02

The Reagans S01E02
WEBRip | MKV | 1920x1080 | English | H264 @ 10002 kbps | E-AC-3 @ 640 kbps | 54 min 3 s | 4.10 GiB
Subtitles: English
Genre: Documentary


A four-part documentary series that explores the many surprisingly unexamined aspects of the Reagan White House, and how Nancy Reagan's paper-doll image was at odds with the power she ultimately wielded throughout her husband's presidency.

a98d477ab09d4660a5dce539e0c9424a.mkv (4.1 GB)



General
Unique ID : 154824327053745680553087551873710020085 (0x747A14ACA33BA583678AD5D05CEBD5F5)
Complete name : ./a98d477ab09d4660a5dce539e0c9424a.mkv
Format : Matroska
Format version : Version 4 / Version 2
File size : 4.10 GiB
Duration : 54 min 3 s
Overall bit rate : 10.9 Mb/s
Writing application : mkvmerge v49.0.0 ('Sick Of Losing Soulmates') 64-bit
Writing library : libebml v1.4.0 + libmatroska v1.6.1

Video
ID : 1
Format : AVC
Format/Info : Advanced Video Codec
Format profile : High@L4
Format settings : CABAC / 4 Ref Frames
Format settings, CABAC : Yes
Format settings, RefFrames : 4 frames
Codec ID : V_MPEG4/ISO/AVC
Duration : 54 min 3 s
Bit rate : 10.0 Mb/s
Width : 1 920 pixels
Height : 1 080 pixels
Display aspect ratio : 16:9
Frame rate mode : Constant
Frame rate : 23.976 (24000/1001) FPS
Color space : YUV
Chroma subsampling : 4:2:0
Bit depth : 8 bits
Scan type : Progressive
Bits/(Pixel*Frame) : 0.201
Stream size : 3.78 GiB (92%)
Default : Yes
Forced : No
Color range : Limited
Color primaries : BT.709
Transfer characteristics : BT.709
Matrix coefficients : BT.709

Audio
ID : 2
Format : E-AC-3
Format/Info : Enhanced Audio Coding 3
Format settings, Endianness : Big
Codec ID : A_EAC3
Duration : 54 min 3 s
Bit rate mode : Constant
Bit rate : 640 kb/s
Channel(s) : 6 channels
Channel positions : Front: L C R, Side: L R, LFE
Sampling rate : 48.0 kHz
Frame rate : 187.500 FPS (256 SPF)
Compression mode : Lossy
Delay relative to video : 31 ms
Stream size : 247 MiB (6%)
Language : English
Service kind : Complete Main
Default : Yes
Forced : No

Text
ID : 3
Format : UTF-8
Codec ID : S_TEXT/UTF8
Codec ID/Info : UTF-8 Plain Text
Title : English
Language : English
Default : No
Forced : No





The Reagans S01E02


The Reagans S01E02


The Reagans S01E02


The Reagans S01E02


The Reagans S01E02

All episodes