Featured TV Shows


The Middle S11E20

Posted By: Tavaz
1080p (FullHD) / WEB-DL IMDb
The Middle S11E20

The Middle S11E20
WEB-DL | MKV | 1920x1080 | English | H264 @ 13321 kbps | E-AC-3 @ 640 kbps | 54 min 16 s | 5.29 GiB
Subtitles: English
Genre: Comedy

The daily mishaps of a married woman and her semi-dysfunctional family and their attempts to survive life in general in the city of Orson, Indiana.

a9c15b9c35fd41248004d718f005e144.mkv (5.3 GB)



General
Unique ID : 68916513322138865235747131762683693305 (0x33D8D67157F9B8046C16C007F09848F9)
Complete name : ./a9c15b9c35fd41248004d718f005e144.mkv
Format : Matroska
Format version : Version 4 / Version 2
File size : 5.29 GiB
Duration : 54 min 16 s
Overall bit rate : 14.0 Mb/s
Encoded date : UTC 2019-04-01 12:23:35
Writing application : mkvmerge v30.1.0 ('Forever And More') 64-bit
Writing library : libebml v1.3.6 + libmatroska v1.4.9

Video
ID : 1
Format : AVC
Format/Info : Advanced Video Codec
Format profile : High@L4
Format settings : CABAC / 4 Ref Frames
Format settings, CABAC : Yes
Format settings, RefFrames : 4 frames
Codec ID : V_MPEG4/ISO/AVC
Duration : 54 min 16 s
Bit rate : 13.3 Mb/s
Width : 1 920 pixels
Height : 1 080 pixels
Display aspect ratio : 16:9
Frame rate mode : Constant
Frame rate : 23.976 (24000/1001) FPS
Color space : YUV
Chroma subsampling : 4:2:0
Bit depth : 8 bits
Scan type : Progressive
Bits/(Pixel*Frame) : 0.268
Stream size : 5.05 GiB (95%)
Default : Yes
Forced : No
Color range : Limited
Color primaries : BT.709
Transfer characteristics : BT.709
Matrix coefficients : BT.709

Audio
ID : 2
Format : E-AC-3
Format/Info : Enhanced Audio Coding 3
Format settings, Endianness : Big
Codec ID : A_EAC3
Duration : 54 min 16 s
Bit rate mode : Constant
Bit rate : 640 kb/s
Channel(s) : 6 channels
Channel positions : Front: L C R, Side: L R, LFE
Sampling rate : 48.0 kHz
Frame rate : 187.500 FPS (256 SPF)
Compression mode : Lossy
Stream size : 248 MiB (5%)
Language : English
Service kind : Complete Main
Default : Yes
Forced : No

Text
ID : 3
Format : UTF-8
Codec ID : S_TEXT/UTF8
Codec ID/Info : UTF-8 Plain Text
Duration : 54 min 0 s
Bit rate : 117 b/s
Count of elements : 1547
Stream size : 46.5 KiB (0%)
Title : SDH
Language : English
Default : No
Forced : No





The Middle S11E20


The Middle S11E20


The Middle S11E20


The Middle S11E20


The Middle S11E20

All episodes