Featured TV Shows


The Resident S02E08

Posted By: Tavaz
720p (HD) / WEB-DL IMDb
The Resident S02E08

The Resident S02E08
WEB-DL | MKV | 1280x720 | English | H264 @ 2132 kbps | E-AC-3 @ 640 kbps | 44 min 52 s | 891 MiB
Subtitles: English
Genre: Drama


A tough, brilliant senior resident guides an idealistic young doctor through his first day, pulling back the curtain on what really happens, both good and bad, in modern-day medicine.

925b9ea564ba4ba89d06bd457d6c70e9.mkv (890.6 MB)



General
Unique ID : 244690621131779270903424116458546764228 (0xB815B30E2965FEC6E117D1C5288F99C4)
Complete name : ./925b9ea564ba4ba89d06bd457d6c70e9.mkv
Format : Matroska
Format version : Version 4 / Version 2
File size : 891 MiB
Duration : 44 min 52 s
Overall bit rate : 2 775 kb/s
Encoded date : UTC 2018-11-20 09:11:02
Writing application : mkvmerge v19.0.0 ('Brave Captain') 64-bit
Writing library : libebml v1.3.5 + libmatroska v1.4.8

Video
ID : 1
Format : AVC
Format/Info : Advanced Video Codec
Format profile : High@L3.1
Format settings : CABAC / 5 Ref Frames
Format settings, CABAC : Yes
Format settings, RefFrames : 5 frames
Codec ID : V_MPEG4/ISO/AVC
Duration : 44 min 52 s
Bit rate : 2 133 kb/s
Width : 1 280 pixels
Height : 720 pixels
Display aspect ratio : 16:9
Frame rate mode : Constant
Frame rate : 23.976 (24000/1001) FPS
Color space : YUV
Chroma subsampling : 4:2:0
Bit depth : 8 bits
Scan type : Progressive
Bits/(Pixel*Frame) : 0.097
Stream size : 685 MiB (77%)
Default : Yes
Forced : No
Color range : Limited
Color primaries : BT.709
Transfer characteristics : BT.709
Matrix coefficients : BT.709

Audio
ID : 2
Format : E-AC-3
Format/Info : Enhanced Audio Coding 3
Format settings, Endianness : Big
Codec ID : A_EAC3
Duration : 44 min 52 s
Bit rate mode : Constant
Bit rate : 640 kb/s
Channel(s) : 6 channels
Channel positions : Front: L C R, Side: L R, LFE
Sampling rate : 48.0 kHz
Frame rate : 187.500 FPS (256 SPF)
Compression mode : Lossy
Stream size : 205 MiB (23%)
Language : English
Service kind : Complete Main
Default : Yes
Forced : No

Text #1
ID : 3
Format : UTF-8
Codec ID : S_TEXT/UTF8
Codec ID/Info : UTF-8 Plain Text
Duration : 44 min 48 s
Bit rate : 75 b/s
Count of elements : 824
Stream size : 24.8 KiB (0%)
Language : English
Default : No
Forced : No

Text #2
ID : 4
Format : UTF-8
Codec ID : S_TEXT/UTF8
Codec ID/Info : UTF-8 Plain Text
Duration : 44 min 48 s
Bit rate : 79 b/s
Count of elements : 866
Stream size : 26.1 KiB (0%)
Title : SDH
Language : English
Default : No
Forced : No





The Resident S02E08


The Resident S02E08


The Resident S02E08


The Resident S02E08


The Resident S02E08

All episodes