Featured TV Shows


The Resident S02E08

Posted By: Tavaz
1080p (FullHD) / WEB-DL IMDb
The Resident S02E08

The Resident S02E08
WEB-DL | MKV | 1920x1080 | English | H264 @ 8206 kbps | E-AC-3 @ 640 kbps | 44 min 52 s | 2.77 GiB
Subtitles: English
Genre: Drama


A tough, brilliant senior resident guides an idealistic young doctor through his first day, pulling back the curtain on what really happens, both good and bad, in modern-day medicine.

65814b8a191b4d0998c8d062f2507f27.mkv (2.8 GB)



General
Unique ID : 272517555613167254007012978270114926955 (0xCD04F8D9C101797D6FEDECCDC17BD16B)
Complete name : ./65814b8a191b4d0998c8d062f2507f27.mkv
Format : Matroska
Format version : Version 4 / Version 2
File size : 2.77 GiB
Duration : 44 min 52 s
Overall bit rate : 8 849 kb/s
Encoded date : UTC 2018-11-20 09:10:13
Writing application : mkvmerge v19.0.0 ('Brave Captain') 64-bit
Writing library : libebml v1.3.5 + libmatroska v1.4.8

Video
ID : 1
Format : AVC
Format/Info : Advanced Video Codec
Format profile : High@L4
Format settings : CABAC / 4 Ref Frames
Format settings, CABAC : Yes
Format settings, RefFrames : 4 frames
Codec ID : V_MPEG4/ISO/AVC
Duration : 44 min 52 s
Bit rate : 8 207 kb/s
Width : 1 920 pixels
Height : 1 080 pixels
Display aspect ratio : 16:9
Frame rate mode : Constant
Frame rate : 23.976 (24000/1001) FPS
Color space : YUV
Chroma subsampling : 4:2:0
Bit depth : 8 bits
Scan type : Progressive
Bits/(Pixel*Frame) : 0.165
Stream size : 2.57 GiB (93%)
Default : Yes
Forced : No
Color range : Limited
Color primaries : BT.709
Transfer characteristics : BT.709
Matrix coefficients : BT.709

Audio
ID : 2
Format : E-AC-3
Format/Info : Enhanced Audio Coding 3
Format settings, Endianness : Big
Codec ID : A_EAC3
Duration : 44 min 52 s
Bit rate mode : Constant
Bit rate : 640 kb/s
Channel(s) : 6 channels
Channel positions : Front: L C R, Side: L R, LFE
Sampling rate : 48.0 kHz
Frame rate : 187.500 FPS (256 SPF)
Compression mode : Lossy
Stream size : 205 MiB (7%)
Language : English
Service kind : Complete Main
Default : Yes
Forced : No

Text #1
ID : 3
Format : UTF-8
Codec ID : S_TEXT/UTF8
Codec ID/Info : UTF-8 Plain Text
Duration : 44 min 48 s
Bit rate : 75 b/s
Count of elements : 824
Stream size : 24.8 KiB (0%)
Language : English
Default : No
Forced : No

Text #2
ID : 4
Format : UTF-8
Codec ID : S_TEXT/UTF8
Codec ID/Info : UTF-8 Plain Text
Duration : 44 min 48 s
Bit rate : 79 b/s
Count of elements : 866
Stream size : 26.1 KiB (0%)
Title : SDH
Language : English
Default : No
Forced : No





The Resident S02E08


The Resident S02E08


The Resident S02E08


The Resident S02E08


The Resident S02E08

All episodes