Featured TV Shows


The Resident S02E14

Posted By: Tavaz
1080p (FullHD) / WEB-DL IMDb
The Resident S02E14

The Resident S02E14
WEB-DL | MKV | 1920x1080 | English | H264 @ 8290 kbps | E-AC-3 @ 640 kbps | 44 min 52 s | 2.80 GiB
Subtitles: English
Genre: Drama


A tough, brilliant senior resident guides an idealistic young doctor through his first day, pulling back the curtain on what really happens, both good and bad, in modern-day medicine.

9b856766f29e474abdbc0f67d67a73b8.mkv (2.8 GB)



General
Unique ID : 298568788662889647835075841976971082739 (0xE09E41CE535886088EFE4B81FAF8BBF3)
Complete name : ./9b856766f29e474abdbc0f67d67a73b8.mkv
Format : Matroska
Format version : Version 4 / Version 2
File size : 2.80 GiB
Duration : 44 min 52 s
Overall bit rate : 8 933 kb/s
Encoded date : UTC 2019-02-12 14:06:05
Writing application : mkvmerge v30.1.0 ('Forever And More') 64-bit
Writing library : libebml v1.3.6 + libmatroska v1.4.9

Video
ID : 1
Format : AVC
Format/Info : Advanced Video Codec
Format profile : High@L4
Format settings : CABAC / 4 Ref Frames
Format settings, CABAC : Yes
Format settings, RefFrames : 4 frames
Codec ID : V_MPEG4/ISO/AVC
Duration : 44 min 52 s
Bit rate : 8 291 kb/s
Width : 1 920 pixels
Height : 1 080 pixels
Display aspect ratio : 16:9
Frame rate mode : Constant
Frame rate : 23.976 (24000/1001) FPS
Color space : YUV
Chroma subsampling : 4:2:0
Bit depth : 8 bits
Scan type : Progressive
Bits/(Pixel*Frame) : 0.167
Stream size : 2.60 GiB (93%)
Default : Yes
Forced : No
Color range : Limited
Color primaries : BT.709
Transfer characteristics : BT.709
Matrix coefficients : BT.709

Audio
ID : 2
Format : E-AC-3
Format/Info : Enhanced Audio Coding 3
Format settings, Endianness : Big
Codec ID : A_EAC3
Duration : 44 min 52 s
Bit rate mode : Constant
Bit rate : 640 kb/s
Channel(s) : 6 channels
Channel positions : Front: L C R, Side: L R, LFE
Sampling rate : 48.0 kHz
Frame rate : 187.500 FPS (256 SPF)
Compression mode : Lossy
Stream size : 205 MiB (7%)
Language : English
Service kind : Complete Main
Default : Yes
Forced : No

Text #1
ID : 3
Format : UTF-8
Codec ID : S_TEXT/UTF8
Codec ID/Info : UTF-8 Plain Text
Duration : 44 min 48 s
Bit rate : 94 b/s
Count of elements : 924
Stream size : 31.2 KiB (0%)
Language : English
Default : No
Forced : No

Text #2
ID : 4
Format : UTF-8
Codec ID : S_TEXT/UTF8
Codec ID/Info : UTF-8 Plain Text
Duration : 44 min 48 s
Bit rate : 94 b/s
Count of elements : 930
Stream size : 31.2 KiB (0%)
Title : SDH
Language : English
Default : No
Forced : No





The Resident S02E14


The Resident S02E14


The Resident S02E14


The Resident S02E14


The Resident S02E14

All episodes