Featured TV Shows


The Resident S02E19

Posted By: Tavaz
1080p (FullHD) / WEB-DL IMDb
The Resident S02E19

The Resident S02E19
WEB-DL | MKV | 1920x1080 | English | H264 @ 9487 kbps | E-AC-3 @ 640 kbps | 45 min 23 s | 3.21 GiB
Subtitles: English
Genre: Drama


A tough, brilliant senior resident guides an idealistic young doctor through his first day, pulling back the curtain on what really happens, both good and bad, in modern-day medicine.

45a3dfff2874475aaa9d7b6306602a04.mkv (3.2 GB)



General
Unique ID : 218440476472831389816756928321235340139 (0xA4561B001DC3E6322B1884A5728A4B6B)
Complete name : ./45a3dfff2874475aaa9d7b6306602a04.mkv
Format : Matroska
Format version : Version 4 / Version 2
File size : 3.21 GiB
Duration : 45 min 23 s
Overall bit rate : 10.1 Mb/s
Encoded date : UTC 2019-04-02 13:00:27
Writing application : mkvmerge v19.0.0 ('Brave Captain') 64-bit
Writing library : libebml v1.3.5 + libmatroska v1.4.8

Video
ID : 1
Format : AVC
Format/Info : Advanced Video Codec
Format profile : High@L4
Format settings : CABAC / 4 Ref Frames
Format settings, CABAC : Yes
Format settings, RefFrames : 4 frames
Codec ID : V_MPEG4/ISO/AVC
Duration : 45 min 23 s
Bit rate mode : Constant
Bit rate : 9 488 kb/s
Nominal bit rate : 10 000 kb/s
Width : 1 920 pixels
Height : 1 080 pixels
Display aspect ratio : 16:9
Frame rate mode : Constant
Frame rate : 23.976 (24000/1001) FPS
Color space : YUV
Chroma subsampling : 4:2:0
Bit depth : 8 bits
Scan type : Progressive
Bits/(Pixel*Frame) : 0.191
Stream size : 3.01 GiB (94%)
Default : Yes
Forced : No
Color range : Limited
Color primaries : BT.709
Transfer characteristics : BT.709
Matrix coefficients : BT.709

Audio
ID : 2
Format : E-AC-3
Format/Info : Enhanced Audio Coding 3
Format settings, Endianness : Big
Codec ID : A_EAC3
Duration : 45 min 23 s
Bit rate mode : Constant
Bit rate : 640 kb/s
Channel(s) : 6 channels
Channel positions : Front: L C R, Side: L R, LFE
Sampling rate : 48.0 kHz
Frame rate : 187.500 FPS (256 SPF)
Compression mode : Lossy
Stream size : 208 MiB (6%)
Language : English
Service kind : Complete Main
Default : Yes
Forced : No

Text #1
ID : 3
Format : UTF-8
Codec ID : S_TEXT/UTF8
Codec ID/Info : UTF-8 Plain Text
Duration : 45 min 20 s
Bit rate : 76 b/s
Count of elements : 824
Stream size : 25.3 KiB (0%)
Title : English
Language : English
Default : No
Forced : No

Text #2
ID : 4
Format : UTF-8
Codec ID : S_TEXT/UTF8
Codec ID/Info : UTF-8 Plain Text
Duration : 45 min 20 s
Bit rate : 81 b/s
Count of elements : 899
Stream size : 27.0 KiB (0%)
Title : English SDH
Language : English
Default : No
Forced : No





The Resident S02E19


The Resident S02E19


The Resident S02E19


The Resident S02E19


The Resident S02E19

All episodes