Featured TV Shows


The Romanoffs S01E06

Posted By: Tavaz
1080p (FullHD) / WEB-DL IMDb
The Romanoffs S01E06

The Romanoffs S01E06
WEB-DL | MKV | 1920x1080 | English / English / German / German / French / French / Italian / Portuguese / Spanish / Spanish / Italian / Portuguese / Spanish / Spanish | H264 @ 9999 kbps | E-AC-3 @ 640 kbps | 1 h 20 min | 8.92 GiB
Subtitles: Swedish, Danish, Indonesian, Dutch, Finnish, Norwegian Bokmal, Portuguese, German, Telugu, English, French, Turkish, Hindi, Spanish, Russian, Polish, Arabic, Chinese, Tamil, Korean, Italian
Genre: Drama

An anthology series centered around people who believe themselves to be the modern-day descendants of the Romanov family.

The.Romanoffs.S01E06.1080p.AMZN.WEB-DL.DDP5.1.H264-Ao-Rakuvfinhel=c3a2be9c0e13d77fdd0d035d500b7b8d7b657596.part1.rar (4.7 GB)
The.Romanoffs.S01E06.1080p.AMZN.WEB-DL.DDP5.1.H264-Ao-Rakuvfinhel=c3a2be9c0e13d77fdd0d035d500b7b8d7b657596.part2.rar (4.3 GB)



General
Unique ID : 59686011738794147305965866074647152377 (0x2CE71B93FD1EF175DEFF05E405F5C6F9)
Complete name : ./bb4ed7bc933e4d52a434172788ff519d.mkv
Format : Matroska
Format version : Version 4 / Version 2
File size : 8.92 GiB
Duration : 1 h 20 min
Overall bit rate : 15.9 Mb/s
Encoded date : UTC 2019-03-22 18:33:09
Writing application : mkvmerge v31.0.0 ('Dolores In A Shoestand') 64-bit
Writing library : libebml v1.3.6 + libmatroska v1.4.9

Video
ID : 1
Format : AVC
Format/Info : Advanced Video Codec
Format profile : High@L4
Format settings : CABAC / 4 Ref Frames
Format settings, CABAC : Yes
Format settings, RefFrames : 4 frames
Codec ID : V_MPEG4/ISO/AVC
Duration : 1 h 20 min
Bit rate mode : Constant
Bit rate : 10 000 kb/s
Width : 1 920 pixels
Height : 1 080 pixels
Display aspect ratio : 16:9
Frame rate mode : Constant
Frame rate : 23.976 (24000/1001) FPS
Color space : YUV
Chroma subsampling : 4:2:0
Bit depth : 8 bits
Scan type : Progressive
Bits/(Pixel*Frame) : 0.201
Stream size : 5.52 GiB (62%)
Language : English
Default : Yes
Forced : No
Color range : Limited
Color primaries : BT.709
Transfer characteristics : BT.709
Matrix coefficients : BT.709

Audio #1
ID : 2
Format : E-AC-3
Format/Info : Enhanced Audio Coding 3
Format settings, Endianness : Big
Codec ID : A_EAC3
Duration : 1 h 20 min
Bit rate mode : Constant
Bit rate : 640 kb/s
Channel(s) : 6 channels
Channel positions : Front: L C R, Side: L R, LFE
Sampling rate : 48.0 kHz
Frame rate : 187.500 FPS (256 SPF)
Compression mode : Lossy
Stream size : 368 MiB (4%)
Title : English
Language : English
Service kind : Complete Main
Default : Yes
Forced : No

Audio #2
ID : 3
Format : E-AC-3
Format/Info : Enhanced Audio Coding 3
Format settings, Endianness : Big
Codec ID : A_EAC3
Duration : 1 h 20 min
Bit rate mode : Constant
Bit rate : 224 kb/s
Channel(s) : 2 channels
Channel positions : Front: L R
Sampling rate : 48.0 kHz
Frame rate : 187.500 FPS (256 SPF)
Compression mode : Lossy
Stream size : 129 MiB (1%)
Title : English
Language : English
Service kind : Complete Main
Default : No
Forced : No

Audio #3
ID : 4
Format : E-AC-3
Format/Info : Enhanced Audio Coding 3
Format settings, Endianness : Big
Codec ID : A_EAC3
Duration : 1 h 20 min
Bit rate mode : Constant
Bit rate : 640 kb/s
Channel(s) : 6 channels
Channel positions : Front: L C R, Side: L R, LFE
Sampling rate : 48.0 kHz
Frame rate : 187.500 FPS (256 SPF)
Compression mode : Lossy
Stream size : 368 MiB (4%)
Title : Deutsch
Language : German
Service kind : Complete Main
Default : No
Forced : No

Audio #4
ID : 5
Format : E-AC-3
Format/Info : Enhanced Audio Coding 3
Format settings, Endianness : Big
Codec ID : A_EAC3
Duration : 1 h 20 min
Bit rate mode : Constant
Bit rate : 224 kb/s
Channel(s) : 2 channels
Channel positions : Front: L R
Sampling rate : 48.0 kHz
Frame rate : 187.500 FPS (256 SPF)
Compression mode : Lossy
Stream size : 129 MiB (1%)
Title : Deutsch
Language : German
Service kind : Complete Main
Default : No
Forced : No

Audio #5
ID : 6
Format : E-AC-3
Format/Info : Enhanced Audio Coding 3
Format settings, Endianness : Big
Codec ID : A_EAC3
Duration : 1 h 20 min
Bit rate mode : Constant
Bit rate : 640 kb/s
Channel(s) : 6 channels
Channel positions : Front: L C R, Side: L R, LFE
Sampling rate : 48.0 kHz
Frame rate : 187.500 FPS (256 SPF)
Compression mode : Lossy
Stream size : 368 MiB (4%)
Title : Français
Language : French
Service kind : Complete Main
Default : No
Forced : No

Audio #6
ID : 7
Format : E-AC-3
Format/Info : Enhanced Audio Coding 3
Format settings, Endianness : Big
Codec ID : A_EAC3
Duration : 1 h 20 min
Bit rate mode : Constant
Bit rate : 224 kb/s
Channel(s) : 2 channels
Channel positions : Front: L R
Sampling rate : 48.0 kHz
Frame rate : 187.500 FPS (256 SPF)
Compression mode : Lossy
Stream size : 129 MiB (1%)
Title : Français
Language : French
Service kind : Complete Main
Default : No
Forced : No

Audio #7
ID : 8
Format : E-AC-3
Format/Info : Enhanced Audio Coding 3
Format settings, Endianness : Big
Codec ID : A_EAC3
Duration : 1 h 20 min
Bit rate mode : Constant
Bit rate : 640 kb/s
Channel(s) : 6 channels
Channel positions : Front: L C R, Side: L R, LFE
Sampling rate : 48.0 kHz
Frame rate : 187.500 FPS (256 SPF)
Compression mode : Lossy
Stream size : 368 MiB (4%)
Title : Italiano
Language : Italian
Service kind : Complete Main
Default : No
Forced : No

Audio #8
ID : 9
Format : E-AC-3
Format/Info : Enhanced Audio Coding 3
Format settings, Endianness : Big
Codec ID : A_EAC3
Duration : 1 h 20 min
Bit rate mode : Constant
Bit rate : 640 kb/s
Channel(s) : 6 channels
Channel positions : Front: L C R, Side: L R, LFE
Sampling rate : 48.0 kHz
Frame rate : 187.500 FPS (256 SPF)
Compression mode : Lossy
Stream size : 368 MiB (4%)
Title : Português
Language : Portuguese
Service kind : Complete Main
Default : No
Forced : No

Audio #9
ID : 10
Format : E-AC-3
Format/Info : Enhanced Audio Coding 3
Format settings, Endianness : Big
Codec ID : A_EAC3
Duration : 1 h 20 min
Bit rate mode : Constant
Bit rate : 640 kb/s
Channel(s) : 6 channels
Channel positions : Front: L C R, Side: L R, LFE
Sampling rate : 48.0 kHz
Frame rate : 187.500 FPS (256 SPF)
Compression mode : Lossy
Stream size : 368 MiB (4%)
Title : Español (España)
Language : Spanish
Service kind : Complete Main
Default : No
Forced : No

Audio #10
ID : 11
Format : E-AC-3
Format/Info : Enhanced Audio Coding 3
Format settings, Endianness : Big
Codec ID : A_EAC3
Duration : 1 h 20 min
Bit rate mode : Constant
Bit rate : 640 kb/s
Channel(s) : 6 channels
Channel positions : Front: L C R, Side: L R, LFE
Sampling rate : 48.0 kHz
Frame rate : 187.500 FPS (256 SPF)
Compression mode : Lossy
Stream size : 368 MiB (4%)
Title : Español (Latinoamérica)
Language : Spanish
Service kind : Complete Main
Default : No
Forced : No

Audio #11
ID : 12
Format : E-AC-3
Format/Info : Enhanced Audio Coding 3
Format settings, Endianness : Big
Codec ID : A_EAC3
Duration : 1 h 20 min
Bit rate mode : Constant
Bit rate : 224 kb/s
Channel(s) : 2 channels
Channel positions : Front: L R
Sampling rate : 48.0 kHz
Frame rate : 187.500 FPS (256 SPF)
Compression mode : Lossy
Stream size : 129 MiB (1%)
Title : Italiano
Language : Italian
Service kind : Complete Main
Default : No
Forced : No

Audio #12
ID : 13
Format : E-AC-3
Format/Info : Enhanced Audio Coding 3
Format settings, Endianness : Big
Codec ID : A_EAC3
Duration : 1 h 20 min
Bit rate mode : Constant
Bit rate : 224 kb/s
Channel(s) : 2 channels
Channel positions : Front: L R
Sampling rate : 48.0 kHz
Frame rate : 187.500 FPS (256 SPF)
Compression mode : Lossy
Stream size : 129 MiB (1%)
Title : Português
Language : Portuguese
Service kind : Complete Main
Default : No
Forced : No

Audio #13
ID : 14
Format : E-AC-3
Format/Info : Enhanced Audio Coding 3
Format settings, Endianness : Big
Codec ID : A_EAC3
Duration : 1 h 20 min
Bit rate mode : Constant
Bit rate : 224 kb/s
Channel(s) : 2 channels
Channel positions : Front: L R
Sampling rate : 48.0 kHz
Frame rate : 187.500 FPS (256 SPF)
Compression mode : Lossy
Stream size : 129 MiB (1%)
Title : Español (España)
Language : Spanish
Service kind : Complete Main
Default : No
Forced : No

Audio #14
ID : 15
Format : E-AC-3
Format/Info : Enhanced Audio Coding 3
Format settings, Endianness : Big
Codec ID : A_EAC3
Duration : 1 h 20 min
Bit rate mode : Constant
Bit rate : 224 kb/s
Channel(s) : 2 channels
Channel positions : Front: L R
Sampling rate : 48.0 kHz
Frame rate : 187.500 FPS (256 SPF)
Compression mode : Lossy
Stream size : 129 MiB (1%)
Title : Español (Latinoamérica)
Language : Spanish
Service kind : Complete Main
Default : No
Forced : No

Text #1
ID : 16
Format : UTF-8
Codec ID : S_TEXT/UTF8
Codec ID/Info : UTF-8 Plain Text
Duration : 1 h 15 min
Bit rate : 44 b/s
Count of elements : 796
Stream size : 24.8 KiB (0%)
Title : Dansk
Language : Danish
Default : Yes
Forced : No

Text #2
ID : 17
Format : UTF-8
Codec ID : S_TEXT/UTF8
Codec ID/Info : UTF-8 Plain Text
Duration : 1 h 14 min
Bit rate : 48 b/s
Count of elements : 725
Stream size : 26.2 KiB (0%)
Title : Deutsch
Language : German
Default : No
Forced : No

Text #3
ID : 18
Format : UTF-8
Codec ID : S_TEXT/UTF8
Codec ID/Info : UTF-8 Plain Text
Duration : 1 h 19 min
Bit rate : 48 b/s
Count of elements : 1004
Stream size : 28.1 KiB (0%)
Title : English [CC]
Language : English
Default : No
Forced : No

Text #4
ID : 19
Format : UTF-8
Codec ID : S_TEXT/UTF8
Codec ID/Info : UTF-8 Plain Text
Duration : 1 h 16 min
Bit rate : 35 b/s
Count of elements : 622
Stream size : 19.7 KiB (0%)
Title : Español (España)
Language : Spanish
Default : No
Forced : No

Text #5
ID : 20
Format : UTF-8
Codec ID : S_TEXT/UTF8
Codec ID/Info : UTF-8 Plain Text
Duration : 1 h 16 min
Bit rate : 35 b/s
Count of elements : 622
Stream size : 20.1 KiB (0%)
Title : Español (Latinoamérica)
Language : Spanish
Default : No
Forced : No

Text #6
ID : 21
Format : UTF-8
Codec ID : S_TEXT/UTF8
Codec ID/Info : UTF-8 Plain Text
Duration : 1 h 16 min
Bit rate : 46 b/s
Count of elements : 771
Stream size : 25.9 KiB (0%)
Title : Français
Language : French
Default : No
Forced : No

Text #7
ID : 22
Format : UTF-8
Codec ID : S_TEXT/UTF8
Codec ID/Info : UTF-8 Plain Text
Duration : 1 h 15 min
Bit rate : 42 b/s
Count of elements : 796
Stream size : 23.5 KiB (0%)
Title : Indonesia
Language : Indonesian
Default : No
Forced : No

Text #8
ID : 23
Format : UTF-8
Codec ID : S_TEXT/UTF8
Codec ID/Info : UTF-8 Plain Text
Duration : 1 h 14 min
Bit rate : 42 b/s
Count of elements : 770
Stream size : 23.2 KiB (0%)
Title : Italiano
Language : Italian
Default : No
Forced : No

Text #9
ID : 24
Format : UTF-8
Codec ID : S_TEXT/UTF8
Codec ID/Info : UTF-8 Plain Text
Duration : 1 h 15 min
Bit rate : 43 b/s
Count of elements : 781
Stream size : 23.8 KiB (0%)
Title : Nederlands
Language : Dutch
Default : No
Forced : No

Text #10
ID : 25
Format : UTF-8
Codec ID : S_TEXT/UTF8
Codec ID/Info : UTF-8 Plain Text
Duration : 1 h 15 min
Bit rate : 43 b/s
Count of elements : 796
Stream size : 24.0 KiB (0%)
Title : Norsk Bokmål
Language : Norwegian Bokmal
Default : No
Forced : No

Text #11
ID : 26
Format : UTF-8
Codec ID : S_TEXT/UTF8
Codec ID/Info : UTF-8 Plain Text
Duration : 1 h 15 min
Bit rate : 41 b/s
Count of elements : 795
Stream size : 23.1 KiB (0%)
Title : Polski
Language : Polish
Default : No
Forced : No

Text #12
ID : 27
Format : UTF-8
Codec ID : S_TEXT/UTF8
Codec ID/Info : UTF-8 Plain Text
Duration : 1 h 17 min
Bit rate : 41 b/s
Count of elements : 815
Stream size : 23.2 KiB (0%)
Title : Português
Language : Portuguese
Default : No
Forced : No

Text #13
ID : 28
Format : UTF-8
Codec ID : S_TEXT/UTF8
Codec ID/Info : UTF-8 Plain Text
Duration : 1 h 15 min
Bit rate : 43 b/s
Count of elements : 796
Stream size : 24.1 KiB (0%)
Title : Suomi
Language : Finnish
Default : No
Forced : No

Text #14
ID : 29
Format : UTF-8
Codec ID : S_TEXT/UTF8
Codec ID/Info : UTF-8 Plain Text
Duration : 1 h 15 min
Bit rate : 44 b/s
Count of elements : 796
Stream size : 24.8 KiB (0%)
Title : Svenska
Language : Swedish
Default : No
Forced : No

Text #15
ID : 30
Format : UTF-8
Codec ID : S_TEXT/UTF8
Codec ID/Info : UTF-8 Plain Text
Duration : 1 h 15 min
Bit rate : 43 b/s
Count of elements : 796
Stream size : 23.9 KiB (0%)
Title : Türkçe
Language : Turkish
Default : No
Forced : No

Text #16
ID : 31
Format : UTF-8
Codec ID : S_TEXT/UTF8
Codec ID/Info : UTF-8 Plain Text
Duration : 1 h 15 min
Bit rate : 78 b/s
Count of elements : 797
Stream size : 43.5 KiB (0%)
Title : Русский
Language : Russian
Default : No
Forced : No

Text #17
ID : 32
Format : UTF-8
Codec ID : S_TEXT/UTF8
Codec ID/Info : UTF-8 Plain Text
Duration : 1 h 15 min
Bit rate : 71 b/s
Count of elements : 797
Stream size : 39.2 KiB (0%)
Title : العربية
Language : Arabic
Default : No
Forced : No

Text #18
ID : 33
Format : UTF-8
Codec ID : S_TEXT/UTF8
Codec ID/Info : UTF-8 Plain Text
Duration : 1 h 15 min
Bit rate : 119 b/s
Count of elements : 797
Stream size : 66.0 KiB (0%)
Title : हिन्दी
Language : Hindi
Default : No
Forced : No

Text #19
ID : 34
Format : UTF-8
Codec ID : S_TEXT/UTF8
Codec ID/Info : UTF-8 Plain Text
Duration : 1 h 16 min
Bit rate : 130 b/s
Count of elements : 798
Stream size : 72.7 KiB (0%)
Title : தமிழ்
Language : Tamil
Default : No
Forced : No

Text #20
ID : 35
Format : UTF-8
Codec ID : S_TEXT/UTF8
Codec ID/Info : UTF-8 Plain Text
Duration : 1 h 16 min
Bit rate : 120 b/s
Count of elements : 798
Stream size : 67.5 KiB (0%)
Title : తెలుగు
Language : Telugu
Default : No
Forced : No

Text #21
ID : 36
Format : UTF-8
Codec ID : S_TEXT/UTF8
Codec ID/Info : UTF-8 Plain Text
Duration : 1 h 15 min
Bit rate : 41 b/s
Count of elements : 797
Stream size : 22.8 KiB (0%)
Title : 中文(简体)
Language : Chinese
Default : No
Forced : No

Text #22
ID : 37
Format : UTF-8
Codec ID : S_TEXT/UTF8
Codec ID/Info : UTF-8 Plain Text
Duration : 1 h 15 min
Bit rate : 39 b/s
Count of elements : 797
Stream size : 21.9 KiB (0%)
Title : 中文(繁體)
Language : Chinese
Default : No
Forced : No

Text #23
ID : 38
Format : UTF-8
Codec ID : S_TEXT/UTF8
Codec ID/Info : UTF-8 Plain Text
Duration : 1 h 15 min
Bit rate : 52 b/s
Count of elements : 797
Stream size : 28.7 KiB (0%)
Title : 한국어
Language : Korean
Default : No
Forced : No





The Romanoffs S01E06


The Romanoffs S01E06


The Romanoffs S01E06


The Romanoffs S01E06


The Romanoffs S01E06

All episodes