Index
# A B C D E F G H I J K L M N O P Q R S T U V W Y Z
Tags
Language
Tags

Featured TV Shows


The Sinner S02E03

Posted By: Tavaz
1080p (FullHD) / HDTV IMDb
The Sinner S02E03

The Sinner S02E03
HDTV | MOV | 1280x720 | H264 @ 3000 kbps | AAC @ 125 kbps | 1 h 0 min | 1.33 GiB
Genre: Drama, Mystery

A young mother kills in a fit of unexplainable rage a seemingly stranger. An inquisitive detective obsesses over the case, attempting to get to the bottom of the true motive behind the act.

eed07ef910d34edab293c34ee7967871.mp4 (1.3 GB)



General
Complete name : ./eed07ef910d34edab293c34ee7967871.mp4
Format : MPEG-4
Format profile : Base Media
Codec ID : isom (isom)
File size : 1.33 GiB
Duration : 1 h 0 min
Overall bit rate mode : Constant
Overall bit rate : 3 137 kb/s
Law rating : TV-MA (LV)
Encoded date : UTC 2018-08-15 03:05:01
Tagged date : UTC 2018-08-15 03:05:01

Video
ID : 1
Format : AVC
Format/Info : Advanced Video Codec
Format profile : High@L3.2
Format settings : CABAC / 4 Ref Frames
Format settings, CABAC : Yes
Format settings, RefFrames : 4 frames
Codec ID : avc1
Codec ID/Info : Advanced Video Coding
Duration : 1 h 0 min
Source duration : 1 h 0 min
Bit rate mode : Constant
Bit rate : 3 000 kb/s
Width : 1 280 pixels
Height : 720 pixels
Display aspect ratio : 16:9
Frame rate mode : Variable
Frame rate : 59.940 (60000/1001) FPS
Minimum frame rate : 59.920 FPS
Maximum frame rate : 59.960 FPS
Color space : YUV
Chroma subsampling : 4:2:0
Bit depth : 8 bits
Scan type : Progressive
Bits/(Pixel*Frame) : 0.054
Stream size : 1.28 GiB (96%)
Source stream size : 1.28 GiB (96%)
Tagged date : UTC 2018-08-15 03:06:39

Audio
ID : 2
Format : AAC
Format/Info : Advanced Audio Codec
Format profile : LC
Codec ID : mp4a-40-2
Duration : 1 h 0 min
Bit rate mode : Constant
Bit rate : 126 kb/s
Channel(s) : 2 channels
Channel positions : Front: L R
Sampling rate : 44.1 kHz
Frame rate : 43.066 FPS (1024 SPF)
Compression mode : Lossy
Stream size : 54.8 MiB (4%)
Default : Yes
Alternate group : 1
Tagged date : UTC 2018-08-15 03:06:39

Text #1
ID : 1-CC1
Format : EIA-608
Muxing mode : SCTE 128 / DTVCC Transport
Muxing mode, more info : Muxed in Video #1
Duration : 1 h 0 min
Bit rate mode : Constant
Stream size : 0.00 Byte (0%)
Encoded stream size : 0.00 Byte (0%)
CaptionServiceName : CC1

Text #2
ID : 1-CC3
Format : EIA-608
Muxing mode : SCTE 128 / DTVCC Transport
Muxing mode, more info : Muxed in Video #1
Duration : 1 h 0 min
Bit rate mode : Constant
Stream size : 0.00 Byte (0%)
Encoded stream size : 0.00 Byte (0%)
CaptionServiceName : CC3





The Sinner S02E03


The Sinner S02E03


The Sinner S02E03


The Sinner S02E03


The Sinner S02E03

All episodes