Index
# A B C D E F G H I J K L M N O P Q R S T U V W Y Z
Tags
Language
Tags

Featured TV Shows


The Sinner S03E01

Posted By: Tavaz
1080p (FullHD) / WEBRip IMDb
The Sinner S03E01

The Sinner S03E01
WEBRip | MKV | 1920x1080 | English | H264 @ 5047 kbps | AAC @ 63 kbps | 49 min 17 s | 1.76 GiB
Genre: Crime, Drama


A young mother kills in a fit of unexplainable rage a seemingly stranger. An inquisitive detective obsesses over the case, attempting to get to the bottom of the true motive behind the act.

e603423d4a5c4adebf686102204a0431.mkv (1.8 GB)



General
Unique ID : 86805907660407159072632550831049207873 (0x414E35AE540D26BAE741A3A15390F041)
Complete name : ./e603423d4a5c4adebf686102204a0431.mkv
Format : Matroska
Format version : Version 4 / Version 2
File size : 1.76 GiB
Duration : 49 min 17 s
Overall bit rate : 5 113 kb/s
Encoded date : UTC 2020-02-07 03:00:32
Writing application : mkvmerge v38.0.0 ('The Silent Type') 64-bit
Writing library : libebml v1.3.9 + libmatroska v1.5.2

Video
ID : 1
Format : AVC
Format/Info : Advanced Video Codec
Format profile : High@L4
Format settings : CABAC / 4 Ref Frames
Format settings, CABAC : Yes
Format settings, RefFrames : 4 frames
Codec ID : V_MPEG4/ISO/AVC
Duration : 49 min 16 s
Bit rate : 5 048 kb/s
Width : 1 920 pixels
Height : 1 080 pixels
Display aspect ratio : 16:9
Frame rate mode : Constant
Frame rate : 23.976 (24000/1001) FPS
Color space : YUV
Chroma subsampling : 4:2:0
Bit depth : 8 bits
Scan type : Progressive
Bits/(Pixel*Frame) : 0.102
Stream size : 1.74 GiB (99%)
Default : Yes
Forced : No

Audio
ID : 2
Format : AAC
Format/Info : Advanced Audio Codec
Format profile : HE-AAC / LC
Format settings : Explicit
Codec ID : A_AAC-2
Duration : 49 min 17 s
Bit rate : 64.0 kb/s
Channel(s) : 2 channels
Channel positions : Front: L R
Sampling rate : 48.0 kHz / 24.0 kHz
Frame rate : 23.438 FPS (1024 SPF)
Compression mode : Lossy
Stream size : 22.6 MiB (1%)
Default : Yes
Forced : No





The Sinner S03E01


The Sinner S03E01


The Sinner S03E01


The Sinner S03E01


The Sinner S03E01

All episodes