Index
# A B C D E F G H I J K L M N O P Q R S T U V W Y Z
Tags
Language
Tags

Featured TV Shows


The Sinner S04E06

Posted By: Tavaz
720p (HD) / WEBRip IMDb
The Sinner S04E06

The Sinner S04E06
WEBRip | MKV | 1280x720 | English | H264 @ 2843 kbps | E-AC-3 @ 640 kbps | 45 min 1 s | 1.10 GiB
Subtitles: English
Genre: Phim Hình Sự, Phim Chính Kịch


In a small New York town, a haunted detective hunts for answers about perplexing crimes while wrestling with his own demons.

01767ec39c824c688237641f0488a196.mkv (1.1 GB)



General
Unique ID : 251661613123525743390457278125904051626 (0xBD54437F021117C023B0DB066BC93DAA)
Complete name : ./01767ec39c824c688237641f0488a196.mkv
Format : Matroska
Format version : Version 4 / Version 2
File size : 1.10 GiB
Duration : 45 min 1 s
Overall bit rate : 3 486 kb/s
Movie name : The Sinner - S04E06 - Part VI
Encoded date : UTC 2021-11-18 05:26:08
Writing application : mkvmerge v63.0.0 ('Everything') 64-bit
Writing library : libebml v1.4.2 + libmatroska v1.6.4
IMDB : tt6048596
TMDB : tv/39852
TVDB : 326866

Video
ID : 1
Format : AVC
Format/Info : Advanced Video Codec
Format profile : High@L3.1
Format settings : CABAC / 4 Ref Frames
Format settings, CABAC : Yes
Format settings, RefFrames : 4 frames
Codec ID : V_MPEG4/ISO/AVC
Duration : 45 min 1 s
Bit rate mode : Constant
Bit rate : 2 844 kb/s
Nominal bit rate : 6 000 kb/s
Width : 1 280 pixels
Height : 720 pixels
Display aspect ratio : 16:9
Frame rate mode : Constant
Frame rate : 23.976 (24000/1001) FPS
Color space : YUV
Chroma subsampling : 4:2:0
Bit depth : 8 bits
Scan type : Progressive
Bits/(Pixel*Frame) : 0.129
Stream size : 916 MiB (82%)
Default : Yes
Forced : No
Color range : Limited
Color primaries : BT.709
Transfer characteristics : BT.709
Matrix coefficients : BT.709

Audio
ID : 2
Format : E-AC-3
Format/Info : Enhanced Audio Coding 3
Format settings, Endianness : Big
Codec ID : A_EAC3
Duration : 45 min 1 s
Bit rate mode : Constant
Bit rate : 640 kb/s
Channel(s) : 6 channels
Channel positions : Front: L C R, Side: L R, LFE
Sampling rate : 48.0 kHz
Frame rate : 187.500 FPS (256 SPF)
Compression mode : Lossy
Stream size : 206 MiB (18%)
Language : English
Service kind : Complete Main
Default : Yes
Forced : No

Text #1
ID : 3
Format : UTF-8
Codec ID : S_TEXT/UTF8
Codec ID/Info : UTF-8 Plain Text
Duration : 44 min 7 s
Bit rate : 58 b/s
Count of elements : 618
Stream size : 19.1 KiB (0%)
Language : English
Default : No
Forced : No

Text #2
ID : 4
Format : UTF-8
Codec ID : S_TEXT/UTF8
Codec ID/Info : UTF-8 Plain Text
Duration : 44 min 16 s
Bit rate : 63 b/s
Count of elements : 720
Stream size : 20.7 KiB (0%)
Title : SDH
Language : English
Default : No
Forced : No

Menu
00:01:10.000 : en:Intro
00:01:22.000 : en:Main
00:44:37.000 : en:Credits





The Sinner S04E06


The Sinner S04E06


The Sinner S04E06


The Sinner S04E06


The Sinner S04E06

All episodes