Index
# A B C D E F G H I J K L M N O P Q R S T U V W X Y Z
Tags
Language
Tags
May 2024
Su Mo Tu We Th Fr Sa
28 29 30 1 2 3 4
5 6 7 8 9 10 11
12 13 14 15 16 17 18
19 20 21 22 23 24 25
26 27 28 29 30 31 1

Featured TV Shows


The Spencer Sisters S01E09

Posted By: Tavaz
1080p (FullHD) / WEBRip IMDb
The Spencer Sisters S01E09

The Spencer Sisters S01E09
WEB-DL | MKV | 1920x1080 | Deutsch / English | H264 @ 8282 kbps | AAC @ 132.3 kbps | 41 min 37 s | 2.48 GiB
Genre: Drama, Komödie, Mystery


Der Chef nervt genauso wie der Freund, der fremdgeht: Darby Spencer (Stacey Farber) zieht die Reißleine, kündigt ihren Polizei-Job samt Beziehung und wagt einen Neuanfang - ausgerechnet in ihrem Heimatort bei ihrer Mutter, einer gefeierten Krimi-Autorin (Lea Thompson). Ein Auftrag und ein dicker Batzen Geld motiviert die beiden, zusammen zu arbeiten. Mutter und Tochter gründen eine Privatdetektei, die "Spencer Sisters". Klingt einfacher, als es ist. Darby sprüht vor Temperament und Tatendrang und bringt Erfahrung in klassischer Ermittlungsarbeit mit. Ihre Mutter Victoria hingegen denkt mehr in literarischen Verbrecherjagd-Kategorien. Entsprechend unterschiedlich gehen die beiden an die Fälle heran. Auch ihre komplizierte gemeinsame Vergangenheit steht den Detektivinnen öfter im Weg.

the.spencer.sisters.s01e09.german.dl.1080p.web.x264-wvf.mkv (2.5 GB)



General
Unique ID : 94653071247050323661207257013958804696 (0x473584B7745075347B85AF36194D04D8)
Complete name : ./the.spencer.sisters.s01e09.german.dl.1080p.web.x264-wvf.mkv
Format : Matroska
Format version : Version 4
File size : 2.48 GiB
Duration : 41 min 37 s
Overall bit rate : 8 547 kb/s
Encoded date : UTC 2024-04-15 00:03:58
Writing application : mkvmerge v51.0.0 ('I Wish') 64-bit
Writing library : libebml v1.4.0 + libmatroska v1.6.2

Video
ID : 1
Format : AVC
Format/Info : Advanced Video Codec
Format profile : Main@L4
Format settings : CABAC / 4 Ref Frames
Format settings, CABAC : Yes
Format settings, Reference frames : 4 frames
Format settings, GOP : M=4, N=50
Codec ID : V_MPEG4/ISO/AVC
Duration : 41 min 37 s
Bit rate : 8 282 kb/s
Width : 1 920 pixels
Height : 1 080 pixels
Display aspect ratio : 16:9
Frame rate mode : Constant
Frame rate : 25.000 FPS
Color space : YUV
Chroma subsampling : 4:2:0
Bit depth : 8 bits
Scan type : Progressive
Bits/(Pixel*Frame) : 0.160
Stream size : 2.41 GiB (97%)
Default : Yes
Forced : No
Color range : Limited
Color primaries : BT.709
Transfer characteristics : BT.709
Matrix coefficients : BT.709

Audio #1
ID : 2
Format : AAC LC
Format/Info : Advanced Audio Codec Low Complexity
Codec ID : A_AAC-2
Duration : 41 min 37 s
Bit rate : 132 kb/s
Channel(s) : 2 channels
Channel layout : L R
Sampling rate : 48.0 kHz
Frame rate : 46.875 FPS (1024 SPF)
Compression mode : Lossy
Stream size : 39.0 MiB (2%)
Language : German
Default : Yes
Forced : No

Audio #2
ID : 3
Format : AAC LC
Format/Info : Advanced Audio Codec Low Complexity
Codec ID : A_AAC-2
Duration : 41 min 37 s
Bit rate : 132 kb/s
Channel(s) : 2 channels
Channel layout : L R
Sampling rate : 48.0 kHz
Frame rate : 46.875 FPS (1024 SPF)
Compression mode : Lossy
Stream size : 39.0 MiB (2%)
Language : English
Default : No
Forced : No





The Spencer Sisters S01E09


The Spencer Sisters S01E09


The Spencer Sisters S01E09


The Spencer Sisters S01E09


The Spencer Sisters S01E09

All episodes