Featured TV Shows


The Terror S01E09

Posted By: Tavaz
SD / HDTV IMDb
The Terror S01E09

The Terror S01E09
HDTV | MOV | 720x404 | Spanish | H264 @ 651 kbps | AAC @ 140 kbps | 54 min 19 s | 309 MiB
Genre: Drama, Mystery

The crew of a Royal Naval expedition searching for the Arctic's treacherous Northwest Passage discovers instead a monstrous predator.

the.terror.s01e09.spanish.hdtv.x264-4fire.sample.mp4 (4.1 MB)
The.Terror.S01E09.SPANiSH.HDTV.x264-4FiRE.mp4 (309.2 MB)



General
Complete name : ./The.Terror.S01E09.SPANiSH.HDTV.x264-4FiRE.mp4
Format : MPEG-4
Format profile : Base Media
Codec ID : isom (isom/avc1)
File size : 309 MiB
Duration : 54 min 19 s
Overall bit rate mode : Variable
Overall bit rate : 796 kb/s
Encoded date : UTC 2018-05-23 15:07:20
Tagged date : UTC 2018-05-23 15:07:20

Video
ID : 1
Format : AVC
Format/Info : Advanced Video Codec
Format profile : High@L3.1
Format settings : CABAC / 5 Ref Frames
Format settings, CABAC : Yes
Format settings, RefFrames : 5 frames
Codec ID : avc1
Codec ID/Info : Advanced Video Coding
Duration : 54 min 19 s
Bit rate : 651 kb/s
Maximum bit rate : 2 781 kb/s
Width : 720 pixels
Height : 404 pixels
Display aspect ratio : 16:9
Frame rate mode : Constant
Frame rate : 25.000 FPS
Color space : YUV
Chroma subsampling : 4:2:0
Bit depth : 8 bits
Scan type : Progressive
Bits/(Pixel*Frame) : 0.090
Stream size : 253 MiB (82%)
Title : Video.By.4FiRE.TEAM
Writing library : x264 core 155 r2901 7d0ff22
Encoding settings : cabac=1 / ref=5 / deblock=1:1:1 / analyse=0x3:0x113 / me=umh / subme=8 / psy=1 / psy_rd=1.00:0.00 / mixed_ref=1 / me_range=16 / chroma_me=1 / trellis=1 / 8x8dct=1 / cqm=0 / deadzone=21,11 / fast_pskip=1 / chroma_qp_offset=-2 / threads=12 / lookahead_threads=2 / sliced_threads=0 / nr=0 / decimate=1 / interlaced=0 / bluray_compat=0 / constrained_intra=0 / bframes=3 / b_pyramid=2 / b_adapt=2 / b_bias=0 / direct=3 / weightb=1 / open_gop=0 / weightp=2 / keyint=250 / keyint_min=25 / scenecut=40 / intra_refresh=0 / rc_lookahead=50 / rc=crf / mbtree=1 / crf=19.0 / qcomp=0.60 / qpmin=0 / qpmax=69 / qpstep=4 / ip_ratio=1.40 / aq=1:1.00
Language : Spanish
Encoded date : UTC 2018-05-23 15:07:20
Tagged date : UTC 2018-05-23 15:07:24

Audio
ID : 2
Format : AAC
Format/Info : Advanced Audio Codec
Format profile : LC
Codec ID : mp4a-40-2
Duration : 54 min 19 s
Bit rate mode : Variable
Bit rate : 140 kb/s
Maximum bit rate : 168 kb/s
Channel(s) : 2 channels
Channel positions : Front: L R
Sampling rate : 48.0 kHz
Frame rate : 46.875 FPS (1024 SPF)
Compression mode : Lossy
Stream size : 54.4 MiB (18%)
Title : 4FiRE.Spanish
Language : Spanish
Encoded date : UTC 2018-05-23 13:45:05
Tagged date : UTC 2018-05-23 15:07:24





The Terror S01E09


The Terror S01E09


The Terror S01E09


The Terror S01E09


The Terror S01E09

All episodes