Index
# A B C D E F G H I J K L M N O P Q R S T U V W X Y Z
Tags
Language
Tags
May 2024
Su Mo Tu We Th Fr Sa
28 29 30 1 2 3 4
5 6 7 8 9 10 11
12 13 14 15 16 17 18
19 20 21 22 23 24 25
26 27 28 29 30 31 1

Featured TV Shows


Between S01E08

Posted By: Tavaz
1080p (FullHD) / BluRay Remux IMDb
Between S01E08

Between S01E08
BluRay Remux | MKV | 1920x1080 | Español | H264 @ 15997 kbps | FLAC @ 724 kbps | 1 h 14 min | 8.67 GiB
Subtitles: Español, English
Genre: Drama


Between is the story of a town under siege from a mysterious disease that has wiped out everybody except those 21 years old and under. The series explores the power vacuum that results when a government has quarantined a 10-mile diameter area and left the inhabitants to fend for themselves.

The.Time.In.Between.S01E08.1080i.Blu-ray.Remux.FLAC.2.0.H.264-TrollHD.part1.rar (4.6 GB)
The.Time.In.Between.S01E08.1080i.Blu-ray.Remux.FLAC.2.0.H.264-TrollHD.part2.rar (4.2 GB)



General
Unique ID : 23129235657192629707721122607995435280 (0x1166875C710FEDD6E9E5D98F295E3910)
Complete name : ./The.Time.In.Between.S01E08.1080i.Blu-ray.Remux.FLAC.2.0.H.264-TrollHD.mkv
Format : Matroska
Format version : Version 4 / Version 2
File size : 8.67 GiB
Duration : 1 h 14 min
Overall bit rate mode : Variable
Overall bit rate : 16.7 Mb/s
Encoded date : UTC 2018-06-21 02:39:13
Writing application : mkvmerge v23.0.0 ('The Bride Said No') 64-bit
Writing library : libebml v1.3.6 + libmatroska v1.4.9

Video
ID : 1
Format : AVC
Format/Info : Advanced Video Codec
Format profile : High@L4.1
Format settings : CABAC / 4 Ref Frames
Format settings, CABAC : Yes
Format settings, RefFrames : 4 frames
Format settings, GOP : M=3, N=25
Codec ID : V_MPEG4/ISO/AVC
Duration : 1 h 14 min
Bit rate : 16.0 Mb/s
Width : 1 920 pixels
Height : 1 080 pixels
Display aspect ratio : 16:9
Frame rate mode : Variable
Frame rate : 50.000 FPS
Original frame rate : 25.000 FPS
Standard : PAL
Color space : YUV
Chroma subsampling : 4:2:0
Bit depth : 8 bits
Scan type : Interlaced
Scan type, store method : Separated fields
Scan order : Top Field First
Bits/(Pixel*Frame) : 0.154
Stream size : 8.28 GiB (96%)
Default : Yes
Forced : No
Color range : Limited
Color primaries : BT.709
Transfer characteristics : BT.709
Matrix coefficients : BT.709

Audio
ID : 2
Format : FLAC
Format/Info : Free Lossless Audio Codec
Codec ID : A_FLAC
Duration : 1 h 14 min
Bit rate mode : Variable
Bit rate : 724 kb/s
Channel(s) : 2 channels
Channel positions : Front: L R
Sampling rate : 48.0 kHz
Frame rate : 11.719 FPS (4096 SPF)
Bit depth : 16 bits
Stream size : 384 MiB (4%)
Writing library : libFLAC 1.3.1 (UTC 2014-11-25)
Language : Spanish
Default : Yes
Forced : No

Text #1
ID : 3
Format : UTF-8
Codec ID : S_TEXT/UTF8
Codec ID/Info : UTF-8 Plain Text
Duration : 1 h 10 min
Bit rate : 50 b/s
Count of elements : 754
Stream size : 26.2 KiB (0%)
Language : English
Default : No
Forced : No

Text #2
ID : 4
Format : UTF-8
Codec ID : S_TEXT/UTF8
Codec ID/Info : UTF-8 Plain Text
Duration : 1 h 13 min
Bit rate : 53 b/s
Count of elements : 877
Stream size : 28.9 KiB (0%)
Language : English
Default : No
Forced : No

Text #3
ID : 5
Format : UTF-8
Codec ID : S_TEXT/UTF8
Codec ID/Info : UTF-8 Plain Text
Duration : 1 h 13 min
Bit rate : 55 b/s
Count of elements : 877
Stream size : 29.5 KiB (0%)
Language : Spanish
Default : No
Forced : No

Text #4
ID : 6
Format : PGS
Muxing mode : zlib
Codec ID : S_HDMV/PGS
Codec ID/Info : Picture based subtitle format used on BDs/HD-DVDs
Duration : 1 h 13 min
Bit rate : 48.0 kb/s
Count of elements : 1754
Stream size : 25.1 MiB (0%)
Language : Spanish
Default : No
Forced : No

Menu
00:00:00.000 : en:Chapter 1
00:07:00.480 : en:Chapter 2
00:19:12.960 : en:Chapter 3
00:30:36.000 : en:Chapter 4
00:45:50.400 : en:Chapter 5
01:00:45.600 : en:Chapter 6
01:12:12.000 : en:Chapter 7





Between S01E08


Between S01E08


Between S01E08


Between S01E08


Between S01E08

All episodes