Index
# A B C D E F G H I J K L M N O P Q R S T U V W Y Z
Tags
Language
Tags
December 2022
Su Mo Tu We Th Fr Sa
27 28 29 30 1 2 3
4 5 6 7 8 9 10
11 12 13 14 15 16 17
18 19 20 21 22 23 24
25 26 27 28 29 30 31

Featured TV Shows


The Untitled Action Bronson Show 2017-11-14

Posted By: Tavaz
1080p (FullHD) / WEBRip IMDb
The Untitled Action Bronson Show 2017-11-14

The Untitled Action Bronson Show 2017-11-14
WEBRip | MKV | 1920x1080 | English | H264 @ 4000 kbps | AAC @ 126 kbps | 22 min 38 s | 663 MiB

Action Bronson hosts this talk show straight from the Munchies Kitchen. A little food, a lot of chaos. All Action.

the.untitled.action.bronson.show.2017.11.14.1080p.web.x264-cookiemonster.mkv (663.2 MB)
sample-the.untitled.action.bronson.show.2017.11.14.1080p.web.x264-cookiemonster.mkv (26.5 MB)



General
Unique ID : 122197191626095250230506511772942828718 (0x5BEE52B339DD2C4AD389559FB7E784AE)
Complete name : ./the.untitled.action.bronson.show.2017.11.14.1080p.web.x264-cookiemonster.mkv
Format : Matroska
Format version : Version 4 / Version 2
File size : 663 MiB
Duration : 22 min 38 s
Overall bit rate : 4 097 kb/s
Encoded date : UTC 2017-11-15 14:01:20
Writing application : mkvmerge v17.0.0 ('Be Ur Friend') 64-bit
Writing library : libebml v1.3.5 + libmatroska v1.4.8

Video
ID : 1
Format : AVC
Format/Info : Advanced Video Codec
Format profile : High@L4
Format settings : CABAC / 2 Ref Frames
Format settings, CABAC : Yes
Format settings, RefFrames : 2 frames
Codec ID : V_MPEG4/ISO/AVC
Duration : 22 min 38 s
Bit rate : 4 000 kb/s
Width : 1 920 pixels
Height : 1 080 pixels
Display aspect ratio : 16:9
Frame rate mode : Constant
Frame rate : 23.976 (24000/1001) FPS
Original frame rate : 24.000 FPS
Color space : YUV
Chroma subsampling : 4:2:0
Bit depth : 8 bits
Scan type : Progressive
Bits/(Pixel*Frame) : 0.080
Stream size : 642 MiB (97%)
Writing library : x264 core 148 r2579M 73ae2d1
Encoding settings : cabac=1 / ref=2 / deblock=1:0:0 / analyse=0x3:0x113 / me=hex / subme=2 / psy=1 / psy_rd=1.00:0.00 / mixed_ref=0 / me_range=16 / chroma_me=1 / trellis=0 / 8x8dct=1 / cqm=0 / deadzone=21,11 / fast_pskip=1 / chroma_qp_offset=0 / threads=4 / lookahead_threads=1 / sliced_threads=0 / nr=250 / decimate=1 / interlaced=0 / bluray_compat=0 / stitchable=1 / constrained_intra=0 / bframes=0 / weightp=1 / keyint=250 / keyint_min=24 / scenecut=40 / intra_refresh=0 / rc_lookahead=10 / rc=2pass / mbtree=1 / bitrate=4000 / ratetol=1.0 / qcomp=0.60 / qpmin=5 / qpmax=69 / qpstep=4 / cplxblur=20.0 / qblur=0.5 / ip_ratio=1.40 / aq=1:1.00
Default : Yes
Forced : No

Audio
ID : 2
Format : AAC
Format/Info : Advanced Audio Codec
Format profile : HE-AAC / LC
Format settings : Implicit
Codec ID : A_AAC-2
Duration : 22 min 38 s
Bit rate : 127 kb/s
Channel(s) : 2 channels
Channel positions : Front: L R
Sampling rate : 48.0 kHz / 24.0 kHz
Frame rate : 23.438 FPS (1024 SPF)
Compression mode : Lossy
Stream size : 20.5 MiB (3%)
Default : Yes
Forced : No





The Untitled Action Bronson Show 2017-11-14


The Untitled Action Bronson Show 2017-11-14


The Untitled Action Bronson Show 2017-11-14


The Untitled Action Bronson Show 2017-11-14


The Untitled Action Bronson Show 2017-11-14