The Walking Dead S09E13

Posted By: Tavaz
SD / WEB-DL IMDb
The Walking Dead S09E13

The Walking Dead S09E13
WEB-DL | MKV | 720x404 | Italian | H264 @ 944 kbps | AAC @ 111 kbps | 39 min 10 s | 297 MiB
Subtitles: Italian
Genre: Dramma

Rick Grimes è un vice sceriffo vittima di un incidente durante uno scontro a fuoco con dei fuorilegge: colpito alla schiena, va in coma, lasciando tra le lacrime la moglie Lori e il figlio Carl. Il risveglio, poco tempo dopo, è traumatico: l'ospedale è distrutto ed è pieno di cadaveri. Rick non ci metterà molto a capire la situazione: il "virus" che sembrava essere controllato prima del suo incidente, ha preso piede. I morti si risvegliano ed attaccano i vivi, la cui presenza è sempre minore. Il vice sceriffo sfrutterà tutte le sue abilità di sopravvivenza e di capacità con le armi per sopravvivere ed uscire dalla città, trovando altri superstiti rifugiati tra i boschi: tra questi, ritrova la famiglia e il suo migliore amico Shane. Costretti poi a spostarsi, presto si accorgeranno che i veri nemici sono gli altri esseri umani, spinti unicamente dall'istinto di sopravvivenza.

The.Walking.Dead.9x13.Punto.Di.Sbarramento.ITA.WEBMux.x264-NovaRip.mkv (296.7 MB)



General
Unique ID : 276864023183407207676558280727842961581 (0xD04A123F39BA6DE5CDA4F722CA76B8AD)
Complete name : ./The.Walking.Dead.9x13.Punto.Di.Sbarramento.ITA.WEBMux.x264-NovaRip.mkv
Format : Matroska
Format version : Version 2
File size : 297 MiB
Duration : 39 min 10 s
Overall bit rate : 1 059 kb/s
Encoded date : UTC 2019-03-16 07:21:08
Writing application : mkvmerge v8.5.2 ('Crosses') 64bit
Writing library : libebml v1.3.3 + libmatroska v1.4.4

Video
ID : 1
Format : AVC
Format/Info : Advanced Video Codec
Format profile : High@L3.1
Format settings : CABAC / 6 Ref Frames
Format settings, CABAC : Yes
Format settings, RefFrames : 6 frames
Codec ID : V_MPEG4/ISO/AVC
Duration : 39 min 10 s
Bit rate : 945 kb/s
Width : 720 pixels
Height : 404 pixels
Display aspect ratio : 16:9
Frame rate mode : Constant
Frame rate : 25.000 FPS
Original frame rate : 23.976 (24000/1001) FPS
Color space : YUV
Chroma subsampling : 4:2:0
Bit depth : 8 bits
Scan type : Progressive
Bits/(Pixel*Frame) : 0.130
Stream size : 265 MiB (89%)
Writing library : x264 core 155 r2901 7d0ff22
Encoding settings : cabac=1 / ref=6 / deblock=1:-2:-2 / analyse=0x3:0x133 / me=umh / subme=7 / psy=1 / psy_rd=1.00:0.00 / mixed_ref=1 / me_range=16 / chroma_me=1 / trellis=2 / 8x8dct=1 / cqm=0 / deadzone=21,11 / fast_pskip=0 / chroma_qp_offset=-2 / threads=6 / lookahead_threads=1 / sliced_threads=0 / nr=0 / decimate=1 / interlaced=0 / bluray_compat=0 / constrained_intra=0 / bframes=5 / b_pyramid=2 / b_adapt=2 / b_bias=0 / direct=3 / weightb=1 / open_gop=0 / weightp=2 / keyint=250 / keyint_min=23 / scenecut=40 / intra_refresh=0 / rc_lookahead=40 / rc=crf / mbtree=1 / crf=19.0 / qcomp=0.60 / qpmin=0 / qpmax=69 / qpstep=4 / ip_ratio=1.40 / aq=1:1.00
Language : English
Default : Yes
Forced : Yes

Audio
ID : 2
Format : AAC
Format/Info : Advanced Audio Codec
Format profile : LC
Codec ID : A_AAC-2
Duration : 39 min 10 s
Bit rate : 112 kb/s
Channel(s) : 2 channels
Channel positions : Front: L R
Sampling rate : 48.0 kHz
Frame rate : 46.875 FPS (1024 SPF)
Compression mode : Lossy
Delay relative to video : 9 ms
Stream size : 31.3 MiB (11%)
Title : ITA
Language : Italian
Default : Yes
Forced : Yes

Text
ID : 3
Format : UTF-8
Codec ID : S_TEXT/UTF8
Codec ID/Info : UTF-8 Plain Text
Duration : 18 min 15 s
Bit rate : 1 b/s
Count of elements : 9
Stream size : 258 Bytes (0%)
Title : ITA - Forced
Language : Italian
Default : Yes
Forced : Yes





The Walking Dead S09E13


The Walking Dead S09E13


The Walking Dead S09E13


The Walking Dead S09E13


The Walking Dead S09E13

All episodes