The Walking Dead S09E13

Posted By: Tavaz
1080p (FullHD) / WEB-DL IMDb
The Walking Dead S09E13

The Walking Dead S09E13
WEB-DL | MKV | 1920x1080 | Italian / English | H264 @ 8179 kbps | AC-3 @ 384 kbps | 39 min 10 s | 2.45 GiB
Subtitles: English, Italian
Genre: Drama

Sheriff's deputy Rick Grimes awakens from a coma to find a post-apocalyptic world dominated by flesh-eating zombies. He sets out to find his family and encounters many other survivors along the way.

The.Walking.Dead.9x13.Punto.Di.Sbarramento.ITA-ENG.1080p.WEBMux.DD5.1.x264-NovaRip.mkv (2.4 GB)



General
Unique ID : 163328506996489420985933624892546035107 (0x7ADFED1E0AD795E7BAAE84A6A0EF2DA3)
Complete name : ./The.Walking.Dead.9x13.Punto.Di.Sbarramento.ITA-ENG.1080p.WEBMux.DD5.1.x264-NovaRip.mkv
Format : Matroska
Format version : Version 2
File size : 2.45 GiB
Duration : 39 min 10 s
Overall bit rate : 8 950 kb/s
Encoded date : UTC 2019-03-16 07:19:12
Writing application : mkvmerge v8.5.2 ('Crosses') 64bit
Writing library : libebml v1.3.3 + libmatroska v1.4.4

Video
ID : 1
Format : AVC
Format/Info : Advanced Video Codec
Format profile : High@L4.1
Format settings : CABAC / 4 Ref Frames
Format settings, CABAC : Yes
Format settings, RefFrames : 4 frames
Codec ID : V_MPEG4/ISO/AVC
Duration : 39 min 10 s
Bit rate : 8 180 kb/s
Width : 1 920 pixels
Height : 1 080 pixels
Display aspect ratio : 16:9
Frame rate mode : Constant
Frame rate : 25.000 FPS
Original frame rate : 23.976 (24000/1001) FPS
Color space : YUV
Chroma subsampling : 4:2:0
Bit depth : 8 bits
Scan type : Progressive
Bits/(Pixel*Frame) : 0.158
Stream size : 2.24 GiB (91%)
Writing library : x264 core 155 r2901 7d0ff22
Encoding settings : cabac=1 / ref=4 / deblock=1:-2:-2 / analyse=0x3:0x133 / me=umh / subme=7 / psy=1 / psy_rd=1.00:0.00 / mixed_ref=1 / me_range=16 / chroma_me=1 / trellis=2 / 8x8dct=1 / cqm=0 / deadzone=21,11 / fast_pskip=0 / chroma_qp_offset=-2 / threads=6 / lookahead_threads=1 / sliced_threads=0 / nr=0 / decimate=1 / interlaced=0 / bluray_compat=0 / constrained_intra=0 / bframes=5 / b_pyramid=2 / b_adapt=2 / b_bias=0 / direct=3 / weightb=1 / open_gop=0 / weightp=2 / keyint=250 / keyint_min=23 / scenecut=40 / intra_refresh=0 / rc_lookahead=40 / rc=crf / mbtree=1 / crf=19.0 / qcomp=0.60 / qpmin=0 / qpmax=69 / qpstep=4 / ip_ratio=1.40 / aq=1:1.00
Language : English
Default : Yes
Forced : Yes

Audio #1
ID : 2
Format : AC-3
Format/Info : Audio Coding 3
Format settings, Endianness : Big
Codec ID : A_AC3
Duration : 39 min 10 s
Bit rate mode : Constant
Bit rate : 384 kb/s
Channel(s) : 6 channels
Channel positions : Front: L C R, Side: L R, LFE
Sampling rate : 48.0 kHz
Frame rate : 31.250 FPS (1536 SPF)
Bit depth : 16 bits
Compression mode : Lossy
Stream size : 108 MiB (4%)
Title : ITA
Language : Italian
Service kind : Complete Main
Default : Yes
Forced : Yes

Audio #2
ID : 3
Format : AC-3
Format/Info : Audio Coding 3
Format settings, Endianness : Big
Codec ID : A_AC3
Duration : 39 min 10 s
Bit rate mode : Constant
Bit rate : 384 kb/s
Channel(s) : 6 channels
Channel positions : Front: L C R, Side: L R, LFE
Sampling rate : 48.0 kHz
Frame rate : 31.250 FPS (1536 SPF)
Bit depth : 16 bits
Compression mode : Lossy
Stream size : 108 MiB (4%)
Title : ENG
Language : English
Service kind : Complete Main
Default : No
Forced : No

Text #1
ID : 4
Format : UTF-8
Codec ID : S_TEXT/UTF8
Codec ID/Info : UTF-8 Plain Text
Duration : 18 min 15 s
Bit rate : 1 b/s
Count of elements : 9
Stream size : 258 Bytes (0%)
Title : ITA - Forced
Language : Italian
Default : Yes
Forced : Yes

Text #2
ID : 5
Format : UTF-8
Codec ID : S_TEXT/UTF8
Codec ID/Info : UTF-8 Plain Text
Duration : 36 min 48 s
Bit rate : 39 b/s
Count of elements : 386
Stream size : 10.5 KiB (0%)
Title : ITA
Language : Italian
Default : No
Forced : No

Text #3
ID : 6
Format : UTF-8
Codec ID : S_TEXT/UTF8
Codec ID/Info : UTF-8 Plain Text
Duration : 36 min 47 s
Bit rate : 36 b/s
Count of elements : 379
Stream size : 9.82 KiB (0%)
Title : ENG
Language : English
Default : No
Forced : No





The Walking Dead S09E13


The Walking Dead S09E13


The Walking Dead S09E13


The Walking Dead S09E13


The Walking Dead S09E13

All episodes