Index
# A B C D E F G H I J K L M N O P Q R S T U V W Y Z
Tags
Language
Tags

Featured TV Shows


The Woman in the House Across the Street from the Girl in the Window S01E08

Posted By: Tavaz
720p (HD) / WEBRip IMDb
The Woman in the House Across the Street from the Girl in the Window S01E08

The Woman in the House Across the Street from the Girl in the Window S01E08
WEBRip | MOV | 1280x720 | Français / English | H264 @ 1033 kbps | E-AC-3 @ 640 kbps | 25 min 44 s | 427 MiB
Genre: Misteri, Kejahatan, Drama, Komedi


For Anna, every day is the same. She sits with her wine, staring out the window, watching life go by without her. But when a handsome neighbor moves in across the street, Anna starts to see a light at the end of the tunnel. That is until she witnesses a gruesome murder… Or did she?

0faa57c89f4f431394b04c3df3791fe4.mkv (426.7 MB)



General
Complete name : ./0faa57c89f4f431394b04c3df3791fe4.mkv
Format : MPEG-4
Format profile : Base Media
Codec ID : isom (isom/iso2/avc1/mp41)
File size : 427 MiB
Duration : 25 min 44 s
Overall bit rate : 2 318 kb/s
Writing application : FlixGrab Plus
FileExtension_Invalid : mov mp4 m4v m4a m4b m4p 3ga 3gpa 3gpp 3gp 3gpp2 3g2 k3g jpm jpx mqv ismv isma ismt f4a f4b f4v

Video
ID : 1
Format : AVC
Format/Info : Advanced Video Codec
Format profile : High@L3.1
Format settings : CABAC / 3 Ref Frames
Format settings, CABAC : Yes
Format settings, RefFrames : 3 frames
Codec ID : avc1
Codec ID/Info : Advanced Video Coding
Duration : 25 min 44 s
Bit rate : 1 034 kb/s
Width : 1 280 pixels
Height : 720 pixels
Display aspect ratio : 16:9
Frame rate mode : Constant
Frame rate : 23.976 (24000/1001) FPS
Color space : YUV
Chroma subsampling : 4:2:0
Bit depth : 8 bits
Scan type : Progressive
Bits/(Pixel*Frame) : 0.047
Stream size : 190 MiB (45%)

Audio #1
ID : 2
Format : E-AC-3
Format/Info : Enhanced Audio Coding 3
Format settings, Endianness : Big
Codec ID : ec-3
Duration : 25 min 44 s
Bit rate mode : Constant
Bit rate : 640 kb/s
Channel(s) : 6 channels
Channel positions : Front: L C R, Side: L R, LFE
Sampling rate : 48.0 kHz
Frame rate : 187.500 FPS (256 SPF)
Bit depth : 16 bits
Compression mode : Lossy
Stream size : 118 MiB (28%)
Language : French
Service kind : Complete Main
Default : Yes
Alternate group : 1

Audio #2
ID : 3
Format : E-AC-3
Format/Info : Enhanced Audio Coding 3
Format profile : E-AC-3+Atmos / E-AC-3
Format settings, Endianness : Big
Codec ID : ec-3
Duration : 25 min 44 s
Bit rate mode : Constant
Bit rate : 640 kb/s
Channel(s) : 15 objects / 6 channels
Channel positions : 15 objects / Front: L C R, Side: L R, LFE
Sampling rate : 48.0 kHz
Frame rate : 187.500 FPS (256 SPF)
Bit depth : 16 bits
Compression mode : Lossy
Stream size : 118 MiB (28%)
Language : English
Service kind : Complete Main
Default : No
Alternate group : 1





The Woman in the House Across the Street from the Girl in the Window S01E08


The Woman in the House Across the Street from the Girl in the Window S01E08


The Woman in the House Across the Street from the Girl in the Window S01E08


The Woman in the House Across the Street from the Girl in the Window S01E08


The Woman in the House Across the Street from the Girl in the Window S01E08

All episodes