X-Files : Aux frontières du réel S11E01

Posted By: Tavaz
SD / HDTV IMDb
X-Files : Aux frontières du réel S11E01

X-Files : Aux frontières du réel S11E01
HDTV | AVI | 720x404 | MP4V-ES @ 970 kbps | MPEG Audio @ 192 kbps | 41 min 55 s | 352 MiB
Genre: Drame, Mystère

Deux agents du FBI sont chargés d'enquêter sur les dossiers non résolus, appelés "X-files" la plupart du temps des affaires où le paranormal entre en jeu. L'agent Fox Mulder, malgré le scepticisme de sa co-équipière Dana Scully, tente de prouver sa thèse du complot gouvernement/extra-terrestres… Fox Mulder n'aura de cesse de rechercher sa soeur disparue des années auparavant lorsqu'il avait 12 ans.

The.X-Files.S11E08.FRENCH.HDTV.XviD-EXTREME.avi (341.6 MB)
The.X-Files.S11E06.FRENCH.HDTV.XviD-EXTREME.avi (311.5 MB)
The.X-Files.S11E10.FiNAL.FRENCH.HDTV.XviD-EXTREME.avi (352.3 MB)
The.X-Files.S11E01.FRENCH.HDTV.XviD-EXTREME.avi (295.4 MB)
The.X-Files.S11E09.FRENCH.HDTV.XviD-EXTREME.avi (298.4 MB)
The.X-Files.S11E03.FRENCH.HDTV.XviD-EXTREME.avi (288.4 MB)
The.X-Files.S11E07.FRENCH.HDTV.XviD-EXTREME.avi (317.1 MB)
The.X-Files.S11E02.FRENCH.HDTV.XviD-EXTREME.avi (271.6 MB)
The.X-Files.S11E04.FRENCH.HDTV.XviD-EXTREME.avi (303.2 MB)
The.X-Files.S11E05.FRENCH.HDTV.XviD-EXTREME.avi (330.8 MB)



General
Complete name : ./The.X-Files.S11E10.FiNAL.FRENCH.HDTV.XviD-EXTREME.avi
Format : AVI
Format/Info : Audio Video Interleave
File size : 352 MiB
Duration : 41 min 55 s
Overall bit rate : 1 175 kb/s
Writing application : Lavf54.63.104

Video
ID : 0
Format : MPEG-4 Visual
Format profile : Simple@L3
Format settings, BVOP : No
Format settings, QPel : No
Format settings, GMC : No warppoints
Format settings, Matrix : Default (H.263)
Codec ID : XVID
Codec ID/Hint : XviD
Duration : 41 min 55 s
Bit rate : 970 kb/s
Width : 720 pixels
Height : 404 pixels
Display aspect ratio : 16:9
Frame rate : 24.000 FPS
Color space : YUV
Chroma subsampling : 4:2:0
Bit depth : 8 bits
Scan type : Progressive
Compression mode : Lossy
Bits/(Pixel*Frame) : 0.139
Stream size : 291 MiB (83%)
Writing library : XviD 64

Audio
ID : 1
Format : MPEG Audio
Format version : Version 1
Format profile : Layer 3
Format settings : Joint stereo / MS Stereo
Mode : Joint stereo
Mode extension : MS Stereo
Codec ID : 55
Codec ID/Hint : MP3
Duration : 41 min 55 s
Bit rate mode : Constant
Bit rate : 192 kb/s
Channel(s) : 2 channels
Sampling rate : 48.0 kHz
Compression mode : Lossy
Stream size : 57.6 MiB (16%)
Alignment : Aligned on interleaves
Interleave, duration : 24 ms (0.58 video frame)
Interleave, preload duration : 24 ms





X-Files : Aux frontières du réel S11E01


X-Files : Aux frontières du réel S11E01


X-Files : Aux frontières du réel S11E01


X-Files : Aux frontières du réel S11E01


X-Files : Aux frontières du réel S11E01

All episodes