Featured TV Shows


This Is Us S04E18

Posted By: Tavaz
1080p (FullHD) / WEBRip IMDb
This Is Us S04E18

This Is Us S04E18
WEBRip | MKV | 1920x1080 | English | H264 @ 10000 kbps | E-AC-3 @ 640 kbps | 44 min 17 s | 3.16 GiB
Subtitles: English
Genre: Comedy, Drama


Follows the lives and families of three adults living and growing up in the United States of America in present and past times. As their paths cross and their life stories intertwine in curious ways, we find that several of them share the same birthday - and so much more than anyone would expect.

36068f7ab1a7490680deb71f1268702e.mkv (3.2 GB)



General
Unique ID : 227863794235673857003427946636252337623 (0xAB6CF86FCE39C1F0E5518DC1B970D5D7)
Complete name : ./36068f7ab1a7490680deb71f1268702e.mkv
Format : Matroska
Format version : Version 4 / Version 2
File size : 3.16 GiB
Duration : 44 min 17 s
Overall bit rate : 10.2 Mb/s
Encoded date : UTC 2020-03-25 07:06:33
Writing application : mkvmerge v38.0.0 ('The Silent Type') 64-bit
Writing library : libebml v1.3.9 + libmatroska v1.5.2

Video
ID : 1
Format : AVC
Format/Info : Advanced Video Codec
Format profile : High@L4
Format settings : CABAC / 4 Ref Frames
Format settings, CABAC : Yes
Format settings, RefFrames : 4 frames
Codec ID : V_MPEG4/ISO/AVC
Duration : 44 min 17 s
Bit rate mode : Constant
Bit rate : 10 000 kb/s
Width : 1 920 pixels
Height : 1 080 pixels
Display aspect ratio : 16:9
Frame rate mode : Constant
Frame rate : 23.976 (24000/1001) FPS
Color space : YUV
Chroma subsampling : 4:2:0
Bit depth : 8 bits
Scan type : Progressive
Bits/(Pixel*Frame) : 0.201
Stream size : 2.96 GiB (94%)
Language : English
Default : Yes
Forced : No
Color range : Limited
Color primaries : BT.709
Transfer characteristics : BT.709
Matrix coefficients : BT.709

Audio
ID : 2
Format : E-AC-3
Format/Info : Enhanced Audio Coding 3
Format settings, Endianness : Big
Codec ID : A_EAC3
Duration : 44 min 17 s
Bit rate mode : Constant
Bit rate : 640 kb/s
Channel(s) : 6 channels
Channel positions : Front: L C R, Side: L R, LFE
Sampling rate : 48.0 kHz
Frame rate : 187.500 FPS (256 SPF)
Compression mode : Lossy
Stream size : 203 MiB (6%)
Language : English
Service kind : Complete Main
Default : Yes
Forced : No

Text
ID : 3
Format : UTF-8
Codec ID : S_TEXT/UTF8
Codec ID/Info : UTF-8 Plain Text
Duration : 44 min 14 s
Bit rate : 78 b/s
Count of elements : 880
Stream size : 25.5 KiB (0%)
Title : English
Language : English
Default : No
Forced : No





This Is Us S04E18


This Is Us S04E18


This Is Us S04E18


This Is Us S04E18


This Is Us S04E18

All episodes