Index
# A B C D E F G H I J K L M N O P Q R S T U V W Y Z
Tags
Language
Tags
November 2022
Su Mo Tu We Th Fr Sa
30 31 1 2 3 4 5
6 7 8 9 10 11 12
13 14 15 16 17 18 19
20 21 22 23 24 25 26
27 28 29 30 1 2 3

Featured TV Shows


Tokyo Eye 2020 S05E02

Posted By: Tavaz
Tokyo Eye 2020 S05E02

Tokyo Eye 2020 S05E02
MKV | 1920x1080 | English | H264 @ 8285 kbps | MPEG Audio @ 128 kbps | 27 min 59 s | 1.65 GiB
Subtitles: Spanish



Tokyo Eye 2020 S05E02 Tokyo Gets Renovated 1080i HDTV MPA2.0 H.264-TrollHD.mkv (1.7 GB)



General
Unique ID : 70235703492778576886395975616978014589 (0x34D6E78A2DA9689A5574BEC0EBC8D17D)
Complete name : ./Tokyo Eye 2020 S05E02 Tokyo Gets Renovated 1080i HDTV MPA2.0 H.264-TrollHD.mkv
Format : Matroska
Format version : Version 4 / Version 2
File size : 1.65 GiB
Duration : 27 min 59 s
Overall bit rate : 8 440 kb/s
Encoded date : UTC 2019-01-16 22:34:05
Writing application : mkvmerge v23.0.0 ('The Bride Said No') 64-bit
Writing library : libebml v1.3.6 + libmatroska v1.4.9

Video
ID : 1
Format : AVC
Format/Info : Advanced Video Codec
Format profile : High@L4
Format settings : CABAC / 4 Ref Frames
Format settings, CABAC : Yes
Format settings, RefFrames : 4 frames
Codec ID : V_MPEG4/ISO/AVC
Duration : 27 min 59 s
Bit rate : 8 285 kb/s
Width : 1 920 pixels
Height : 1 080 pixels
Display aspect ratio : 16:9
Frame rate mode : Constant
Frame rate : 29.970 (30000/1001) FPS
Color space : YUV
Chroma subsampling : 4:2:0
Bit depth : 8 bits
Scan type : MBAFF
Scan type, store method : Interleaved fields
Scan order : Top Field First
Bits/(Pixel*Frame) : 0.133
Stream size : 1.62 GiB (98%)
Default : Yes
Forced : No

Audio
ID : 2
Format : MPEG Audio
Format version : Version 1
Format profile : Layer 2
Codec ID : A_MPEG/L2
Codec ID/Hint : MP2
Duration : 27 min 59 s
Bit rate mode : Constant
Bit rate : 128 kb/s
Channel(s) : 2 channels
Sampling rate : 48.0 kHz
Frame rate : 41.667 FPS (1152 SPF)
Compression mode : Lossy
Stream size : 25.6 MiB (2%)
Language : English
Default : Yes
Forced : No

Text
ID : 3
Format : DVB Subtitle
Muxing mode : zlib
Codec ID : S_DVBSUB
Codec ID/Info : Picture based subtitle format used on DVBs
Duration : 27 min 50 s
Bit rate : 39.6 kb/s
Count of elements : 4213
Stream size : 7.88 MiB (0%)
Language : Spanish
Default : No
Forced : No





Tokyo Eye 2020 S05E02


Tokyo Eye 2020 S05E02


Tokyo Eye 2020 S05E02


Tokyo Eye 2020 S05E02

All episodes