Featured TV Shows


Tokyo Eye 2020 S05E25

Posted By: Tavaz
Tokyo Eye 2020 S05E25

Tokyo Eye 2020 S05E25
MKV | 1920x1080 | English | H264 @ 8413 kbps | MPEG Audio @ 128 kbps | 28 min 0 s | 1.68 GiB
Subtitles: Spanish




Tokyo Eye 2020 S05E25 The Soundscapes of Tokyo 1080i HDTV MPA2.0 H.264-TrollHD.mkv (1.7 GB)



General
Unique ID : 6738557388932325939312539351117425923 (0x511CC87B51CC5A9C71A5F5BEA9B6D03)
Complete name : ./Tokyo Eye 2020 S05E25 The Soundscapes of Tokyo 1080i HDTV MPA2.0 H.264-TrollHD.mkv
Format : Matroska
Format version : Version 4 / Version 2
File size : 1.68 GiB
Duration : 28 min 0 s
Overall bit rate : 8 568 kb/s
Encoded date : UTC 2019-09-25 01:14:30
Writing application : mkvmerge v30.0.0 ('Interstellar') 64-bit
Writing library : libebml v1.3.6 + libmatroska v1.4.9

Video
ID : 1
Format : AVC
Format/Info : Advanced Video Codec
Format profile : High@L4
Format settings : CABAC / 4 Ref Frames
Format settings, CABAC : Yes
Format settings, RefFrames : 4 frames
Codec ID : V_MPEG4/ISO/AVC
Duration : 27 min 59 s
Bit rate : 8 413 kb/s
Width : 1 920 pixels
Height : 1 080 pixels
Display aspect ratio : 16:9
Frame rate mode : Constant
Frame rate : 29.970 (30000/1001) FPS
Color space : YUV
Chroma subsampling : 4:2:0
Bit depth : 8 bits
Scan type : MBAFF
Scan type, store method : Interleaved fields
Scan order : Top Field First
Bits/(Pixel*Frame) : 0.135
Stream size : 1.65 GiB (98%)
Language : English
Default : Yes
Forced : No

Audio
ID : 2
Format : MPEG Audio
Format version : Version 1
Format profile : Layer 2
Codec ID : A_MPEG/L2
Codec ID/Hint : MP2
Duration : 27 min 59 s
Bit rate mode : Constant
Bit rate : 128 kb/s
Channel(s) : 2 channels
Sampling rate : 48.0 kHz
Frame rate : 41.667 FPS (1152 SPF)
Compression mode : Lossy
Stream size : 25.6 MiB (1%)
Language : English
Default : Yes
Forced : No

Text
ID : 3
Format : DVB Subtitle
Muxing mode : zlib
Codec ID : S_DVBSUB
Codec ID/Info : Picture based subtitle format used on DVBs
Duration : 27 min 53 s
Bit rate : 39.2 kb/s
Count of elements : 4346
Stream size : 7.81 MiB (0%)
Language : Spanish
Default : Yes
Forced : No





Tokyo Eye 2020 S05E25


Tokyo Eye 2020 S05E25


Tokyo Eye 2020 S05E25


Tokyo Eye 2020 S05E25

All episodes