Featured TV Shows


Tom Clancy's Jack Ryan S01E04

Posted By: Tavaz
720p (HD) / WEBRip IMDb
Tom Clancy's Jack Ryan S01E04

Tom Clancy's Jack Ryan S01E04
WEBRip | MKV | 1280x720 | English | H264 @ 1814 kbps | E-AC-3 @ 640 kbps | 43 min 34 s | 781 MiB
Subtitles: English (United States)
Genre: Drama

When CIA analyst Jack Ryan stumbles upon a suspicious series of bank transfers his search for answers pulls him from the safety of his desk job and catapults him into a deadly game of cat and mouse throughout Europe and the Middle East, with a rising terrorist figurehead preparing for a massive attack against the US and her allies.

22eb761efe9d47d8bcee21137b6ed8f2.mkv (780.5 MB)



General
Unique ID : 184349620812121269827682461233336107009 (0x8AB0720C0418D9E5528BA71EE1254001)
Complete name : ./22eb761efe9d47d8bcee21137b6ed8f2.mkv
Format : Matroska
Format version : Version 4 / Version 2
File size : 781 MiB
Duration : 43 min 34 s
Overall bit rate : 2 505 kb/s
Movie name : Tom Clancy's Jack Ryan S01E04
Writing application : Lavf57.72.101
Writing library : Lavf57.72.101
ErrorDetectionType : Per level 1

Video
ID : 1
Format : AVC
Format/Info : Advanced Video Codec
Format profile : High@L3.1
Format settings : CABAC / 5 Ref Frames
Format settings, CABAC : Yes
Format settings, RefFrames : 5 frames
Codec ID : V_MPEG4/ISO/AVC
Duration : 43 min 34 s
Bit rate : 1 815 kb/s
Width : 1 280 pixels
Height : 720 pixels
Display aspect ratio : 16:9
Frame rate mode : Constant
Frame rate : 23.976 (24000/1001) FPS
Color space : YUV
Chroma subsampling : 4:2:0
Bit depth : 8 bits
Scan type : Progressive
Bits/(Pixel*Frame) : 0.082
Stream size : 566 MiB (72%)
Default : Yes
Forced : No
Color range : Limited
Color primaries : BT.709
Transfer characteristics : BT.709
Matrix coefficients : BT.709

Audio
ID : 2
Format : E-AC-3
Format/Info : Enhanced Audio Coding 3
Format settings, Endianness : Big
Codec ID : A_EAC3
Duration : 43 min 34 s
Bit rate mode : Constant
Bit rate : 640 kb/s
Channel(s) : 6 channels
Channel positions : Front: L C R, Side: L R, LFE
Sampling rate : 48.0 kHz
Frame rate : 187.500 FPS (256 SPF)
Bit depth : 32 bits
Compression mode : Lossy
Stream size : 199 MiB (26%)
Title : English
Language : English
Service kind : Complete Main
Default : Yes
Forced : No

Text
ID : 3
Format : UTF-8
Codec ID : S_TEXT/UTF8
Codec ID/Info : UTF-8 Plain Text
Title : English [CC]
Language : English (United States)
Default : No
Forced : No





Tom Clancy's Jack Ryan S01E04


Tom Clancy's Jack Ryan S01E04


Tom Clancy's Jack Ryan S01E04


Tom Clancy's Jack Ryan S01E04


Tom Clancy's Jack Ryan S01E04

All episodes