Featured TV Shows


Tom Clancy's Jack Ryan S01E04

Posted By: Tavaz
1080p (FullHD) / WEBRip IMDb
Tom Clancy's Jack Ryan S01E04

Tom Clancy's Jack Ryan S01E04
WEBRip | MKV | 1920x1080 | English | H264 @ 6293 kbps | E-AC-3 @ 640 kbps | 43 min 34 s | 2.15 GiB
Subtitles: English (United States)
Genre: Drama

When CIA analyst Jack Ryan stumbles upon a suspicious series of bank transfers his search for answers pulls him from the safety of his desk job and catapults him into a deadly game of cat and mouse throughout Europe and the Middle East, with a rising terrorist figurehead preparing for a massive attack against the US and her allies.

246240e79d2b4bacb752a0eacc058c23.mkv (2.2 GB)



General
Unique ID : 141116171975483440672148503732002158932 (0x6A29FC72A78ACA388D35AF28A64EF954)
Complete name : ./246240e79d2b4bacb752a0eacc058c23.mkv
Format : Matroska
Format version : Version 4 / Version 2
File size : 2.15 GiB
Duration : 43 min 34 s
Overall bit rate : 7 074 kb/s
Movie name : Tom Clancy's Jack Ryan S01E04
Writing application : Lavf57.72.101
Writing library : Lavf57.72.101
ErrorDetectionType : Per level 1

Video
ID : 1
Format : AVC
Format/Info : Advanced Video Codec
Format profile : High@L4
Format settings : CABAC / 4 Ref Frames
Format settings, CABAC : Yes
Format settings, RefFrames : 4 frames
Codec ID : V_MPEG4/ISO/AVC
Duration : 43 min 34 s
Bit rate : 6 293 kb/s
Width : 1 920 pixels
Height : 1 080 pixels
Display aspect ratio : 16:9
Frame rate mode : Constant
Frame rate : 23.976 (24000/1001) FPS
Color space : YUV
Chroma subsampling : 4:2:0
Bit depth : 8 bits
Scan type : Progressive
Bits/(Pixel*Frame) : 0.127
Stream size : 1.92 GiB (89%)
Default : Yes
Forced : No
Color range : Limited
Color primaries : BT.709
Transfer characteristics : BT.709
Matrix coefficients : BT.709

Audio
ID : 2
Format : E-AC-3
Format/Info : Enhanced Audio Coding 3
Format settings, Endianness : Big
Codec ID : A_EAC3
Duration : 43 min 34 s
Bit rate mode : Constant
Bit rate : 640 kb/s
Channel(s) : 6 channels
Channel positions : Front: L C R, Side: L R, LFE
Sampling rate : 48.0 kHz
Frame rate : 187.500 FPS (256 SPF)
Bit depth : 32 bits
Compression mode : Lossy
Stream size : 199 MiB (9%)
Title : English
Language : English
Service kind : Complete Main
Default : Yes
Forced : No

Text
ID : 3
Format : UTF-8
Codec ID : S_TEXT/UTF8
Codec ID/Info : UTF-8 Plain Text
Title : English [CC]
Language : English (United States)
Default : No
Forced : No





Tom Clancy's Jack Ryan S01E04


Tom Clancy's Jack Ryan S01E04


Tom Clancy's Jack Ryan S01E04


Tom Clancy's Jack Ryan S01E04


Tom Clancy's Jack Ryan S01E04

All episodes