Featured TV Shows


Tom Clancy's Jack Ryan S01E05

Posted By: Tavaz
1080p (FullHD) / WEBRip IMDb
Tom Clancy's Jack Ryan S01E05

Tom Clancy's Jack Ryan S01E05
WEBRip | MKV | 1920x1080 | English | H264 @ 7676 kbps | E-AC-3 @ 640 kbps | 49 min 3 s | 2.91 GiB
Subtitles: English (United States)
Genre: Drama

When CIA analyst Jack Ryan stumbles upon a suspicious series of bank transfers his search for answers pulls him from the safety of his desk job and catapults him into a deadly game of cat and mouse throughout Europe and the Middle East, with a rising terrorist figurehead preparing for a massive attack against the US and her allies.

644c7035e0ea42b3ab8e91147affc0fe.mkv (2.9 GB)



General
Unique ID : 51708281357524592215043735986699071027 (0x26E6A71A39D57E5CD8EE9567AA156E33)
Complete name : ./644c7035e0ea42b3ab8e91147affc0fe.mkv
Format : Matroska
Format version : Version 4 / Version 2
File size : 2.91 GiB
Duration : 49 min 3 s
Overall bit rate : 8 485 kb/s
Movie name : Tom Clancy's Jack Ryan S01E05
Writing application : Lavf57.72.101
Writing library : Lavf57.72.101
ErrorDetectionType : Per level 1

Video
ID : 1
Format : AVC
Format/Info : Advanced Video Codec
Format profile : High@L4
Format settings : CABAC / 4 Ref Frames
Format settings, CABAC : Yes
Format settings, RefFrames : 4 frames
Codec ID : V_MPEG4/ISO/AVC
Duration : 49 min 3 s
Bit rate : 7 676 kb/s
Width : 1 920 pixels
Height : 1 080 pixels
Display aspect ratio : 16:9
Frame rate mode : Constant
Frame rate : 23.976 (24000/1001) FPS
Color space : YUV
Chroma subsampling : 4:2:0
Bit depth : 8 bits
Scan type : Progressive
Bits/(Pixel*Frame) : 0.154
Stream size : 2.63 GiB (90%)
Default : Yes
Forced : No
Color range : Limited
Color primaries : BT.709
Transfer characteristics : BT.709
Matrix coefficients : BT.709

Audio
ID : 2
Format : E-AC-3
Format/Info : Enhanced Audio Coding 3
Format settings, Endianness : Big
Codec ID : A_EAC3
Duration : 49 min 3 s
Bit rate mode : Constant
Bit rate : 640 kb/s
Channel(s) : 6 channels
Channel positions : Front: L C R, Side: L R, LFE
Sampling rate : 48.0 kHz
Frame rate : 187.500 FPS (256 SPF)
Bit depth : 32 bits
Compression mode : Lossy
Stream size : 225 MiB (8%)
Title : English
Language : English
Service kind : Complete Main
Default : Yes
Forced : No

Text
ID : 3
Format : UTF-8
Codec ID : S_TEXT/UTF8
Codec ID/Info : UTF-8 Plain Text
Title : English [CC]
Language : English (United States)
Default : No
Forced : No





Tom Clancy's Jack Ryan S01E05


Tom Clancy's Jack Ryan S01E05


Tom Clancy's Jack Ryan S01E05


Tom Clancy's Jack Ryan S01E05


Tom Clancy's Jack Ryan S01E05

All episodes