Featured TV Shows


Tom Clancy's Jack Ryan S01E07

Posted By: Tavaz
720p (HD) / WEBRip IMDb
Tom Clancy's Jack Ryan S01E07

Tom Clancy's Jack Ryan S01E07
WEBRip | MKV | 1280x720 | English | H264 @ 1713 kbps | E-AC-3 @ 640 kbps | 47 min 36 s | 818 MiB
Subtitles: English (United States)
Genre: Drama

When CIA analyst Jack Ryan stumbles upon a suspicious series of bank transfers his search for answers pulls him from the safety of his desk job and catapults him into a deadly game of cat and mouse throughout Europe and the Middle East, with a rising terrorist figurehead preparing for a massive attack against the US and her allies.

94c9b6ef64e44f14a3513e031a3727ff.mkv (817.6 MB)



General
Unique ID : 203885035888565476196625161322290249142 (0x9962D45F8D9B9F2A69C28060FD7C7DB6)
Complete name : ./94c9b6ef64e44f14a3513e031a3727ff.mkv
Format : Matroska
Format version : Version 4 / Version 2
File size : 818 MiB
Duration : 47 min 36 s
Overall bit rate : 2 401 kb/s
Movie name : Tom Clancy's Jack Ryan S01E07
Writing application : Lavf57.72.101
Writing library : Lavf57.72.101
ErrorDetectionType : Per level 1

Video
ID : 1
Format : AVC
Format/Info : Advanced Video Codec
Format profile : High@L3.1
Format settings : CABAC / 5 Ref Frames
Format settings, CABAC : Yes
Format settings, RefFrames : 5 frames
Codec ID : V_MPEG4/ISO/AVC
Duration : 47 min 36 s
Bit rate : 1 713 kb/s
Width : 1 280 pixels
Height : 720 pixels
Display aspect ratio : 16:9
Frame rate mode : Constant
Frame rate : 23.976 (24000/1001) FPS
Color space : YUV
Chroma subsampling : 4:2:0
Bit depth : 8 bits
Scan type : Progressive
Bits/(Pixel*Frame) : 0.078
Stream size : 583 MiB (71%)
Default : Yes
Forced : No
Color range : Limited
Color primaries : BT.709
Transfer characteristics : BT.709
Matrix coefficients : BT.709

Audio
ID : 2
Format : E-AC-3
Format/Info : Enhanced Audio Coding 3
Format settings, Endianness : Big
Codec ID : A_EAC3
Duration : 47 min 36 s
Bit rate mode : Constant
Bit rate : 640 kb/s
Channel(s) : 6 channels
Channel positions : Front: L C R, Side: L R, LFE
Sampling rate : 48.0 kHz
Frame rate : 187.500 FPS (256 SPF)
Bit depth : 32 bits
Compression mode : Lossy
Stream size : 218 MiB (27%)
Title : English
Language : English
Service kind : Complete Main
Default : Yes
Forced : No

Text
ID : 3
Format : UTF-8
Codec ID : S_TEXT/UTF8
Codec ID/Info : UTF-8 Plain Text
Title : English [CC]
Language : English (United States)
Default : No
Forced : No





Tom Clancy's Jack Ryan S01E07


Tom Clancy's Jack Ryan S01E07


Tom Clancy's Jack Ryan S01E07


Tom Clancy's Jack Ryan S01E07


Tom Clancy's Jack Ryan S01E07

All episodes