Featured TV Shows


Too Old to Die Young S01E01

Posted By: Tavaz
1080p (FullHD) / WEB-DL IMDb
Too Old to Die Young

Too Old to Die Young S01E01
Directed by Nicolas Winding Refn
WEB-DL | MKV | 1920x1040 | English | H264 @ 8934 kbps | E-AC-3 @ 640 kbps | 1 h 33 min | 6.23 GiB
Subtitles: Swedish, Telugu, Turkish, Hindi, Dutch, Korean, Danish, Indonesian, Norwegian Bokmal, French, Russian, Thai, Tamil, Finnish, Spanish, English, Italian, Portuguese, Chinese, German, Hebrew, Polish, Arabic
Genre: Crime, Drama

A grieving police officer, along with the man who shot his partner, finds himself in an underworld filled with working-class hit men, Yakuza soldiers, cartel assassins sent from Mexico, Russian mafia captains and gangs of teen killers.

042c88a806d54550b55f5ffebdd95c68.mkv (6.2 GB)



General
Unique ID : 309042357872122105514511925033072894835 (0xE87F64A2EC15F5248DD4024D9458A373)
Complete name : ./042c88a806d54550b55f5ffebdd95c68.mkv
Format : Matroska
Format version : Version 4 / Version 2
File size : 6.23 GiB
Duration : 1 h 33 min
Overall bit rate : 9 578 kb/s
Encoded date : UTC 2019-06-14 00:39:39
Writing application : mkvmerge v21.0.0 ('Tardigrades Will Inherit The Earth') 64-bit
Writing library : libebml v1.3.5 + libmatroska v1.4.8

Video
ID : 1
Format : AVC
Format/Info : Advanced Video Codec
Format profile : High@L4
Format settings : CABAC / 4 Ref Frames
Format settings, CABAC : Yes
Format settings, RefFrames : 4 frames
Format settings, GOP : M=4, N=48
Codec ID : V_MPEG4/ISO/AVC
Duration : 1 h 33 min
Bit rate mode : Constant
Bit rate : 8 934 kb/s
Nominal bit rate : 10 000 kb/s
Width : 1 920 pixels
Height : 1 040 pixels
Display aspect ratio : 1.85:1
Frame rate mode : Constant
Frame rate : 24.000 FPS
Color space : YUV
Chroma subsampling : 4:2:0
Bit depth : 8 bits
Scan type : Progressive
Bits/(Pixel*Frame) : 0.186
Stream size : 5.81 GiB (93%)
Default : Yes
Forced : No
Color range : Limited
Color primaries : BT.709
Transfer characteristics : BT.709
Matrix coefficients : BT.709

Audio
ID : 2
Format : E-AC-3
Format/Info : Enhanced Audio Coding 3
Format settings, Endianness : Big
Codec ID : A_EAC3
Duration : 1 h 33 min
Bit rate mode : Constant
Bit rate : 640 kb/s
Channel(s) : 6 channels
Channel positions : Front: L C R, Side: L R, LFE
Sampling rate : 48.0 kHz
Frame rate : 187.500 FPS (256 SPF)
Compression mode : Lossy
Stream size : 426 MiB (7%)
Language : English
Service kind : Complete Main
Default : Yes
Forced : No

Text #1
ID : 3
Format : UTF-8
Codec ID : S_TEXT/UTF8
Codec ID/Info : UTF-8 Plain Text
Duration : 5 min 16 s
Bit rate : 29 b/s
Count of elements : 44
Stream size : 1.16 KiB (0%)
Title : Forced
Language : English
Default : Yes
Forced : Yes

Text #2
ID : 4
Format : UTF-8
Codec ID : S_TEXT/UTF8
Codec ID/Info : UTF-8 Plain Text
Duration : 1 h 32 min
Bit rate : 25 b/s
Count of elements : 777
Stream size : 17.5 KiB (0%)
Language : English
Default : No
Forced : No

Text #3
ID : 5
Format : UTF-8
Codec ID : S_TEXT/UTF8
Codec ID/Info : UTF-8 Plain Text
Duration : 1 h 32 min
Bit rate : 25 b/s
Count of elements : 782
Stream size : 17.5 KiB (0%)
Title : SDH
Language : English
Default : No
Forced : No

Text #4
ID : 6
Format : UTF-8
Codec ID : S_TEXT/UTF8
Codec ID/Info : UTF-8 Plain Text
Duration : 1 h 27 min
Bit rate : 41 b/s
Count of elements : 645
Stream size : 26.3 KiB (0%)
Language : Arabic
Default : No
Forced : No

Text #5
ID : 7
Format : UTF-8
Codec ID : S_TEXT/UTF8
Codec ID/Info : UTF-8 Plain Text
Duration : 1 h 27 min
Bit rate : 22 b/s
Count of elements : 641
Stream size : 14.5 KiB (0%)
Title : 中文(简体)
Language : Chinese
Default : No
Forced : No

Text #6
ID : 8
Format : UTF-8
Codec ID : S_TEXT/UTF8
Codec ID/Info : UTF-8 Plain Text
Duration : 1 h 27 min
Bit rate : 20 b/s
Count of elements : 641
Stream size : 12.9 KiB (0%)
Title : 中文(繁體)
Language : Chinese
Default : No
Forced : No

Text #7
ID : 9
Format : UTF-8
Codec ID : S_TEXT/UTF8
Codec ID/Info : UTF-8 Plain Text
Duration : 1 h 27 min
Bit rate : 23 b/s
Count of elements : 645
Stream size : 15.0 KiB (0%)
Language : Danish
Default : No
Forced : No

Text #8
ID : 10
Format : UTF-8
Codec ID : S_TEXT/UTF8
Codec ID/Info : UTF-8 Plain Text
Duration : 1 h 27 min
Bit rate : 24 b/s
Count of elements : 617
Stream size : 15.9 KiB (0%)
Language : German
Default : No
Forced : No

Text #9
ID : 11
Format : UTF-8
Codec ID : S_TEXT/UTF8
Codec ID/Info : UTF-8 Plain Text
Duration : 1 h 27 min
Bit rate : 21 b/s
Count of elements : 602
Stream size : 13.7 KiB (0%)
Title : Latinoamérica
Language : Spanish
Default : No
Forced : No

Text #10
ID : 12
Format : UTF-8
Codec ID : S_TEXT/UTF8
Codec ID/Info : UTF-8 Plain Text
Duration : 1 h 27 min
Bit rate : 21 b/s
Count of elements : 606
Stream size : 14.0 KiB (0%)
Title : España
Language : Spanish
Default : No
Forced : No

Text #11
ID : 13
Format : UTF-8
Codec ID : S_TEXT/UTF8
Codec ID/Info : UTF-8 Plain Text
Duration : 1 h 27 min
Bit rate : 22 b/s
Count of elements : 644
Stream size : 14.6 KiB (0%)
Language : Finnish
Default : No
Forced : No

Text #12
ID : 14
Format : UTF-8
Codec ID : S_TEXT/UTF8
Codec ID/Info : UTF-8 Plain Text
Duration : 1 h 27 min
Bit rate : 22 b/s
Count of elements : 629
Stream size : 14.6 KiB (0%)
Language : French
Default : No
Forced : No

Text #13
ID : 15
Format : UTF-8
Codec ID : S_TEXT/UTF8
Codec ID/Info : UTF-8 Plain Text
Duration : 1 h 27 min
Bit rate : 37 b/s
Count of elements : 641
Stream size : 23.9 KiB (0%)
Language : Hebrew
Default : No
Forced : No

Text #14
ID : 16
Format : UTF-8
Codec ID : S_TEXT/UTF8
Codec ID/Info : UTF-8 Plain Text
Duration : 1 h 27 min
Bit rate : 61 b/s
Count of elements : 645
Stream size : 39.1 KiB (0%)
Language : Hindi
Default : No
Forced : No

Text #15
ID : 17
Format : UTF-8
Codec ID : S_TEXT/UTF8
Codec ID/Info : UTF-8 Plain Text
Duration : 1 h 27 min
Bit rate : 22 b/s
Count of elements : 645
Stream size : 14.2 KiB (0%)
Language : Indonesian
Default : No
Forced : No

Text #16
ID : 18
Format : UTF-8
Codec ID : S_TEXT/UTF8
Codec ID/Info : UTF-8 Plain Text
Duration : 1 h 27 min
Bit rate : 22 b/s
Count of elements : 645
Stream size : 14.3 KiB (0%)
Language : Italian
Default : No
Forced : No

Text #17
ID : 19
Format : UTF-8
Codec ID : S_TEXT/UTF8
Codec ID/Info : UTF-8 Plain Text
Duration : 1 h 27 min
Bit rate : 24 b/s
Count of elements : 645
Stream size : 15.7 KiB (0%)
Language : Korean
Default : No
Forced : No

Text #18
ID : 20
Format : UTF-8
Codec ID : S_TEXT/UTF8
Codec ID/Info : UTF-8 Plain Text
Duration : 1 h 27 min
Bit rate : 23 b/s
Count of elements : 645
Stream size : 14.8 KiB (0%)
Language : Norwegian Bokmal
Default : No
Forced : No

Text #19
ID : 21
Format : UTF-8
Codec ID : S_TEXT/UTF8
Codec ID/Info : UTF-8 Plain Text
Duration : 1 h 27 min
Bit rate : 21 b/s
Count of elements : 640
Stream size : 14.0 KiB (0%)
Language : Dutch
Default : No
Forced : No

Text #20
ID : 22
Format : UTF-8
Codec ID : S_TEXT/UTF8
Codec ID/Info : UTF-8 Plain Text
Duration : 1 h 27 min
Bit rate : 22 b/s
Count of elements : 631
Stream size : 14.5 KiB (0%)
Language : Polish
Default : No
Forced : No

Text #21
ID : 23
Format : UTF-8
Codec ID : S_TEXT/UTF8
Codec ID/Info : UTF-8 Plain Text
Duration : 1 h 27 min
Bit rate : 23 b/s
Count of elements : 645
Stream size : 15.3 KiB (0%)
Language : Portuguese
Default : No
Forced : No

Text #22
ID : 24
Format : UTF-8
Codec ID : S_TEXT/UTF8
Codec ID/Info : UTF-8 Plain Text
Duration : 1 h 27 min
Bit rate : 41 b/s
Count of elements : 645
Stream size : 26.7 KiB (0%)
Language : Russian
Default : No
Forced : No

Text #23
ID : 25
Format : UTF-8
Codec ID : S_TEXT/UTF8
Codec ID/Info : UTF-8 Plain Text
Duration : 1 h 27 min
Bit rate : 23 b/s
Count of elements : 640
Stream size : 15.2 KiB (0%)
Language : Swedish
Default : No
Forced : No

Text #24
ID : 26
Format : UTF-8
Codec ID : S_TEXT/UTF8
Codec ID/Info : UTF-8 Plain Text
Duration : 1 h 27 min
Bit rate : 70 b/s
Count of elements : 645
Stream size : 45.2 KiB (0%)
Language : Tamil
Default : No
Forced : No

Text #25
ID : 27
Format : UTF-8
Codec ID : S_TEXT/UTF8
Codec ID/Info : UTF-8 Plain Text
Duration : 1 h 27 min
Bit rate : 67 b/s
Count of elements : 645
Stream size : 43.2 KiB (0%)
Language : Telugu
Default : No
Forced : No

Text #26
ID : 28
Format : UTF-8
Codec ID : S_TEXT/UTF8
Codec ID/Info : UTF-8 Plain Text
Duration : 1 h 27 min
Bit rate : 55 b/s
Count of elements : 645
Stream size : 35.2 KiB (0%)
Language : Thai
Default : No
Forced : No

Text #27
ID : 29
Format : UTF-8
Codec ID : S_TEXT/UTF8
Codec ID/Info : UTF-8 Plain Text
Duration : 1 h 27 min
Bit rate : 23 b/s
Count of elements : 645
Stream size : 15.1 KiB (0%)
Language : Turkish
Default : No
Forced : No

Menu
00:00:00.000 : en:Studio Logo
00:00:05.000 : en:Disclaimer
00:00:16.000 : en:She ruins my life
00:05:47.000 : en:Title Sequence
00:06:09.000 : en:It's about what you want
00:14:32.000 : en:Johnson talks to Amanda on phone
00:18:00.000 : en:Martin needs for emergency response
00:18:55.000 : en:A long night to Maritn
00:22:05.000 : en:Ricardo lays down on his bed
00:28:58.000 : en:Martin wants to talk to Damian
00:32:02.000 : en:Martin comes to see Damian
00:35:07.000 : en:Damian gives Martin a job
00:39:13.000 : en:Amanda comes to Martin
00:43:10.000 : en:Martin meets Janey
00:50:03.000 : en:Martin visits Janey's house and meets her father
00:53:58.000 : en:Martin and Theo are talking at her room
01:00:45.000 : en:Celestino bugs Martin
01:04:16.000 : en:Damian's threaten
01:09:07.000 : en:Martin and Sylvia talk about the memorial
01:11:26.000 : en:Martin visits Amanda's room
01:15:08.000 : en:Martin puts in action
01:20:57.000 : en:Martin comes to the memorial
01:26:04.000 : en:Now you work for me
01:30:48.000 : en:End Credits





Too Old to Die Young S01E01


Too Old to Die Young S01E01


Too Old to Die Young S01E01


Too Old to Die Young S01E01


Too Old to Die Young S01E01

All episodes