Featured TV Shows


Too Old to Die Young S01E10

Posted By: Tavaz
720p (HD) / WEBRip IMDb
Too Old to Die Young S01E10

Too Old to Die Young S01E10
WEBRip | MKV | 1280x688 | English | H264 @ 3561 kbps | E-AC-3 @ 640 kbps | 30 min 20 s | 931 MiB
Subtitles: English
Genre: Crime, Drama


A grieving police officer, along with the man who shot his partner, finds himself in an underworld filled with working-class hit men, Yakuza soldiers, cartel assassins sent from Mexico, Russian mafia captains and gangs of teen killers.

3ff4303e1b2a4d64909f1a3c459c0b44.mkv (930.6 MB)



General
Unique ID : 257502406561091094102481435819939589143 (0xC1B928D894FA1A91703565AE693DEC17)
Complete name : ./3ff4303e1b2a4d64909f1a3c459c0b44.mkv
Format : Matroska
Format version : Version 4 / Version 2
File size : 931 MiB
Duration : 30 min 20 s
Overall bit rate : 4 287 kb/s
Writing application : mkvmerge v33.1.0 ('Primrose') 64-bit
Writing library : libebml v1.3.7 + libmatroska v1.5.0

Video
ID : 1
Format : AVC
Format/Info : Advanced Video Codec
Format profile : High@L3.1
Format settings : CABAC / 4 Ref Frames
Format settings, CABAC : Yes
Format settings, RefFrames : 4 frames
Codec ID : V_MPEG4/ISO/AVC
Duration : 30 min 20 s
Bit rate mode : Constant
Bit rate : 3 562 kb/s
Nominal bit rate : 6 000 kb/s
Width : 1 280 pixels
Height : 688 pixels
Display aspect ratio : 1.85:1
Frame rate mode : Constant
Frame rate : 24.000 FPS
Color space : YUV
Chroma subsampling : 4:2:0
Bit depth : 8 bits
Scan type : Progressive
Bits/(Pixel*Frame) : 0.169
Stream size : 773 MiB (83%)
Default : Yes
Forced : No
Color range : Limited
Color primaries : BT.709
Transfer characteristics : BT.709
Matrix coefficients : BT.709

Audio
ID : 2
Format : E-AC-3
Format/Info : Enhanced Audio Coding 3
Format settings, Endianness : Big
Codec ID : A_EAC3
Duration : 30 min 20 s
Bit rate mode : Constant
Bit rate : 640 kb/s
Channel(s) : 6 channels
Channel positions : Front: L C R, Side: L R, LFE
Sampling rate : 48.0 kHz
Frame rate : 187.500 FPS (256 SPF)
Compression mode : Lossy
Delay relative to video : -992 ms
Stream size : 139 MiB (15%)
Language : English
Service kind : Complete Main
Default : Yes
Forced : No

Text
ID : 3
Format : UTF-8
Codec ID : S_TEXT/UTF8
Codec ID/Info : UTF-8 Plain Text
Title : English
Language : English
Default : No
Forced : No





Too Old to Die Young S01E10


Too Old to Die Young S01E10


Too Old to Die Young S01E10


Too Old to Die Young S01E10


Too Old to Die Young S01E10

All episodes