Featured TV Shows


Good Girls S08E01

Posted By: Tavaz
1080p (FullHD) / WEB-DL IMDb
Good Girls S08E01

Good Girls S08E01
WEB-DL | MKV | 1920x1080 | English | H264 @ 5928 kbps | AAC @ 63 kbps | 43 min 41 s | 1.83 GiB
Subtitles: English
Genre: Comedy, Drama

Three "good girl" suburban wives and mothers suddenly find themselves in desperate circumstances and decide to stop playing it safe and risk everything to take their power back.

560587bf8bb54300a3fadbc50a6d66ec.mkv (1.8 GB)



General
Complete name : ./560587bf8bb54300a3fadbc50a6d66ec.mkv
Format : Matroska
Format version : Version 4 / Version 2
File size : 1.83 GiB
Duration : 43 min 41 s
Overall bit rate : 5 995 kb/s
Encoded date : UTC 2018-09-30 18:28:05
Writing application : mkvmerge v20.0.0 ('I Am The Sun') 32-bit
Writing library : libebml v1.3.5 + libmatroska v1.4.8

Video
ID : 1
Format : AVC
Format/Info : Advanced Video Codec
Format profile : High@L4
Format settings : CABAC / 4 Ref Frames
Format settings, CABAC : Yes
Format settings, RefFrames : 4 frames
Codec ID : V_MPEG4/ISO/AVC
Duration : 43 min 41 s
Bit rate : 5 928 kb/s
Width : 1 920 pixels
Height : 1 080 pixels
Display aspect ratio : 16:9
Frame rate mode : Constant
Frame rate : 29.970 (30000/1001) FPS
Color space : YUV
Chroma subsampling : 4:2:0
Bit depth : 8 bits
Scan type : Progressive
Bits/(Pixel*Frame) : 0.095
Stream size : 1.81 GiB (99%)
Default : Yes
Forced : No

Audio
ID : 2
Format : AAC
Format/Info : Advanced Audio Codec
Format profile : HE-AAC / LC
Format settings : Explicit
Codec ID : A_AAC-2
Duration : 43 min 41 s
Bit rate : 64.0 kb/s
Channel(s) : 2 channels
Channel positions : Front: L R
Sampling rate : 48.0 kHz / 24.0 kHz
Frame rate : 23.438 FPS (1024 SPF)
Compression mode : Lossy
Stream size : 20.0 MiB (1%)
Default : Yes
Forced : No

Text
ID : 3
Format : UTF-8
Codec ID : S_TEXT/UTF8
Codec ID/Info : UTF-8 Plain Text
Duration : 43 min 32 s
Bit rate : 139 b/s
Count of elements : 1959
Stream size : 44.3 KiB (0%)
Language : English
Default : No
Forced : No





Good Girls S08E01


Good Girls S08E01


Good Girls S08E01


Good Girls S08E01


Good Girls S08E01

All episodes