Index
# A B C D E F G H I J K L M N O P Q R S T U V W X Y Z
Tags
Language
Tags
July 2024
Su Mo Tu We Th Fr Sa
30 1 2 3 4 5 6
7 8 9 10 11 12 13
14 15 16 17 18 19 20
21 22 23 24 25 26 27
28 29 30 31 1 2 3

Featured TV Shows


Transformers: Earthspark S01E03

Posted By: Tavaz
720p (HD) / WEBRip IMDb
Transformers: Earthspark S01E03

Transformers: Earthspark S01E03
WEBRip | MKV | 1280x688 | English | H264 @ 3729 kbps | E-AC-3 @ 640 kbps | 22 min 40 s | 709 MiB
Subtitles: English
Genre: Animation, Short, Action, Adventure, Comedy, Drama, Family, Sci-Fi


A new species of Transformers must find their place and purpose among Autobots, Decepticons, and the human family who adopts them.
This 26-episode action-comedy series introduces a new generation of Transformers robots – the first Transformers robots to be born on Earth. Together with the human family who welcomes them in and cares for them, they'll redefine what it means to be a family.
After the end of civil war between the Autobots and the Decepticons, the Malto family relocates from Philadelphia to the small town of Witwicky, Pennsylvania. There, young Robby and Mo Malto witness the birth of a new breed of Transformers called Terrans, who form a bond with the two. Now adopted into the family, the Terrans work with the children to protect their new life and find their place in the world.::wikipedia

7036351159444320aac961f3a909507a.mkv (709.0 MB)



General
Unique ID : 152118216679813339759384873785791168742 (0x7270E721C53230AAA71A3A4C01CD40E6)
Complete name : ./7036351159444320aac961f3a909507a.mkv
Format : Matroska
Format version : Version 4 / Version 2
File size : 709 MiB
Duration : 22 min 40 s
Overall bit rate : 4 372 kb/s
Writing application : mkvmerge v67.0.0 ('Under Stars') 64-bit
Writing library : libebml v1.4.2 + libmatroska v1.6.4

Video
ID : 1
Format : AVC
Format/Info : Advanced Video Codec
Format profile : High@L3.1
Format settings : CABAC / 4 Ref Frames
Format settings, CABAC : Yes
Format settings, RefFrames : 4 frames
Codec ID : V_MPEG4/ISO/AVC
Duration : 22 min 40 s
Bit rate mode : Constant
Bit rate : 3 730 kb/s
Nominal bit rate : 4 000 kb/s
Width : 1 280 pixels
Height : 688 pixels
Display aspect ratio : 1.85:1
Frame rate mode : Constant
Frame rate : 24.000 FPS
Color space : YUV
Chroma subsampling : 4:2:0
Bit depth : 8 bits
Scan type : Progressive
Bits/(Pixel*Frame) : 0.176
Stream size : 605 MiB (85%)
Language : English
Default : Yes
Forced : No
Color range : Limited
Color primaries : BT.709
Transfer characteristics : BT.709
Matrix coefficients : BT.709

Audio
ID : 2
Format : E-AC-3
Format/Info : Enhanced Audio Coding 3
Format settings, Endianness : Big
Codec ID : A_EAC3
Duration : 22 min 40 s
Bit rate mode : Constant
Bit rate : 640 kb/s
Channel(s) : 6 channels
Channel positions : Front: L C R, Side: L R, LFE
Sampling rate : 48.0 kHz
Frame rate : 187.500 FPS (256 SPF)
Compression mode : Lossy
Stream size : 104 MiB (15%)
Language : English
Service kind : Complete Main
Default : Yes
Forced : No

Text
ID : 3
Format : UTF-8
Codec ID : S_TEXT/UTF8
Codec ID/Info : UTF-8 Plain Text
Duration : 22 min 3 s
Bit rate : 76 b/s
Count of elements : 465
Stream size : 12.4 KiB (0%)
Title : English (SDH)
Language : English
Default : No
Forced : No





Transformers: Earthspark S01E03


Transformers: Earthspark S01E03


Transformers: Earthspark S01E03


Transformers: Earthspark S01E03

All episodes