Index
# A B C D E F G H I J K L M N O P Q R S T U V W X Y Z
Tags
Language
Tags
July 2024
Su Mo Tu We Th Fr Sa
30 1 2 3 4 5 6
7 8 9 10 11 12 13
14 15 16 17 18 19 20
21 22 23 24 25 26 27
28 29 30 31 1 2 3

Featured TV Shows


Transformers: Earthspark S01E17

Posted By: Tavaz
1080p (FullHD) / WEB-DL IMDb
Transformers: Earthspark S01E17

Transformers: Earthspark S01E17
WEB-DL | MKV | 1920x1080 | English | H264 @ 4500 kbps | E-AC-3 @ 192.0 kbps | 44 min 47 s | 1.45 GiB
Subtitles: English
Genre: Animation, Short, Action, Adventure, Comedy, Drama, Family, Sci-Fi


A new species of Transformers must find their place and purpose among Autobots, Decepticons, and the human family who adopts them.
This 26-episode action-comedy series introduces a new generation of Transformers robots – the first Transformers robots to be born on Earth. Together with the human family who welcomes them in and cares for them, they'll redefine what it means to be a family.
After the end of civil war between the Autobots and the Decepticons, the Malto family relocates from Philadelphia to the small town of Witwicky, Pennsylvania. There, young Robby and Mo Malto witness the birth of a new breed of Transformers called Terrans, who form a bond with the two. Now adopted into the family, the Terrans work with the children to protect their new life and find their place in the world.::wikipedia

25b625fc8c964adba34621bcd42a702e.mkv (1.4 GB)



General
Unique ID : 234529744601403418511280758555143979974 (0xB070C92A0A4E03DF70498040D7DE43C6)
Complete name : ./25b625fc8c964adba34621bcd42a702e.mkv
Format : Matroska
Format version : Version 4
File size : 1.45 GiB
Duration : 44 min 47 s
Overall bit rate : 4 626 kb/s
Movie name : Transformers: EarthSpark (S1E17): Home, Pt. 1 and Pt. 2
Writing application : Lavf59.27.100
Writing library : Lavf59.27.100
Comment : The kids and Terrans sneak out for a night of fun in Philadelphia, but their dream of visiting the big city transforms into a nightmare.
ErrorDetectionType : Per level 1

Video
ID : 1
Format : AVC
Format/Info : Advanced Video Codec
Format profile : High@L4
Format settings : CABAC / 4 Ref Frames
Format settings, CABAC : Yes
Format settings, Reference frames : 4 frames
Codec ID : V_MPEG4/ISO/AVC
Duration : 44 min 47 s
Bit rate : 4 500 kb/s
Width : 1 920 pixels
Height : 1 080 pixels
Display aspect ratio : 16:9
Frame rate mode : Constant
Frame rate : 23.976 (24000/1001) FPS
Color space : YUV
Chroma subsampling : 4:2:0
Bit depth : 8 bits
Scan type : Progressive
Bits/(Pixel*Frame) : 0.091
Stream size : 1.36 GiB (94%)
Writing library : x264 core 164 r3095 baee400
Encoding settings : cabac=1 / ref=4 / deblock=1:0:0 / analyse=0x3:0x113 / me=hex / subme=8 / psy=1 / psy_rd=1.00:0.00 / mixed_ref=1 / me_range=16 / chroma_me=1 / trellis=2 / 8x8dct=1 / cqm=0 / deadzone=21,11 / fast_pskip=1 / chroma_qp_offset=-2 / threads=12 / lookahead_threads=2 / sliced_threads=0 / nr=0 / decimate=1 / interlaced=0 / bluray_compat=0 / stitchable=1 / constrained_intra=0 / bframes=3 / b_pyramid=2 / b_adapt=1 / b_bias=0 / direct=3 / weightb=1 / open_gop=0 / weightp=2 / keyint=48 / keyint_min=4 / scenecut=0 / intra_refresh=0 / rc_lookahead=48 / rc=2pass / mbtree=1 / bitrate=4500 / ratetol=1.0 / qcomp=0.60 / qpmin=0 / qpmax=69 / qpstep=4 / cplxblur=20.0 / qblur=0.5 / vbv_maxrate=5400 / vbv_bufsize=4500 / nal_hrd=none / filler=0 / ip_ratio=1.40 / aq=1:1.00
Default : Yes
Forced : No
Color range : Limited
Color primaries : BT.709
Transfer characteristics : BT.709
Matrix coefficients : BT.709
VENDOR_ID : [0][0][0][0]

Audio
ID : 2
Format : E-AC-3
Format/Info : Enhanced AC-3
Commercial name : Dolby Digital Plus
Codec ID : A_EAC3
Duration : 44 min 47 s
Bit rate mode : Constant
Bit rate : 192 kb/s
Channel(s) : 6 channels
Channel layout : L R C LFE Ls Rs
Sampling rate : 48.0 kHz
Frame rate : 31.250 FPS (1536 SPF)
Bit depth : 32 bits
Compression mode : Lossy
Delay relative to video : -83 ms
Stream size : 61.5 MiB (4%)
Language : English
Service kind : Complete Main
Default : Yes
Forced : No
VENDOR_ID : [0][0][0][0]

Text
ID : 3
Format : UTF-8
Codec ID : S_TEXT/UTF8
Codec ID/Info : UTF-8 Plain Text
Duration : 44 min 11 s
Title : English
Writing library : Lavc59.37.100 srt
Language : English
Default : Yes
Forced : No





Transformers: Earthspark S01E17


Transformers: Earthspark S01E17


Transformers: Earthspark S01E17


Transformers: Earthspark S01E17

All episodes