Trapped S01E08

Posted By: Tavaz
1080p (FullHD) / WEBRip IMDb
Trapped S01E08

Trapped S01E08
WEBRip | MKV | 1920x1080 | Italian | H264 @ 6999 kbps | AAC @ 192 kbps | 53 min 29 s | 2.61 GiB
Genre: Dramma, Mistero


Poco dopo l'arrivo di un traghetto internazionale nel porto locale, nei pressi della cittadina di Siglufjörður, viene ritrovato un cadavere mutilato. La comunità ne è sconvolta e le indagini della polizia si complicano dopo la morte del principale sospettato, mentre una tormenta blocca tutte le vie d'accesso alla città.

enc-trapped.s01e08.italian.1080p.web.h264.mkv (2.6 GB)
enc-trapped.s01e08.italian.1080p.web.h264_sample.mkv (55.6 MB)



General
Unique ID : 156863843715314109720884339786483249918 (0x7602E09BFECFED020B16714A777432FE)
Complete name : ./enc-trapped.s01e08.italian.1080p.web.h264.mkv
Format : Matroska
Format version : Version 4 / Version 2
File size : 2.61 GiB
Duration : 53 min 29 s
Overall bit rate : 6 982 kb/s
Encoded date : UTC 2019-05-14 18:26:31
Writing application : mkvmerge v33.1.0 ('Primrose') 64-bit
Writing library : libebml v1.3.7 + libmatroska v1.5.0

Video
ID : 1
Format : AVC
Format/Info : Advanced Video Codec
Format profile : Main@L4
Format settings : CABAC / 4 Ref Frames
Format settings, CABAC : Yes
Format settings, RefFrames : 4 frames
Codec ID : V_MPEG4/ISO/AVC
Duration : 53 min 29 s
Bit rate mode : Constant
Bit rate : 7 000 kb/s
Width : 1 920 pixels
Height : 1 080 pixels
Display aspect ratio : 16:9
Frame rate mode : Constant
Frame rate : 25.000 FPS
Standard : PAL
Color space : YUV
Chroma subsampling : 4:2:0
Bit depth : 8 bits
Scan type : Progressive
Bits/(Pixel*Frame) : 0.135
Stream size : 2.54 GiB (97%)
Language : Italian
Default : No
Forced : No
Color range : Limited

Audio
ID : 2
Format : AAC
Format/Info : Advanced Audio Codec
Format profile : LC
Codec ID : A_AAC-2
Duration : 53 min 29 s
Bit rate : 192 kb/s
Channel(s) : 2 channels
Channel positions : Front: L R
Sampling rate : 44.1 kHz
Frame rate : 43.066 FPS (1024 SPF)
Compression mode : Lossy
Stream size : 72.3 MiB (3%)
Language : Italian
Default : Yes
Forced : No





Trapped S01E08


Trapped S01E08


Trapped S01E08


Trapped S01E08


Trapped S01E08

All episodes