Trapped S02E08

Posted By: Tavaz
1080p (FullHD) / WEB-DL IMDb
Trapped S02E08

Trapped S02E08
WEB-DL | MKV | 1920x1080 | Icelandic | H264 @ 3439 kbps | AAC @ 139 kbps | 50 min 25 s | 1.26 GiB
Subtitles: English
Genre: Drama, Mystery

As a ferry carrying 300 passengers from Denmark pulls into an Icelandic town’s small port, heavy snow begins to fall. The ferry can’t leave until the storm passes and the main road into town is impassable. A mutilated and dismembered body washes on the shore, an unidentifiable man murdered only hours ago. The local police chief, Andri Olafssun, whose personal life is in shatters, realizes a killer has descended into his town. As word spreads, order disintegrates into chaos as the ferry’s passengers and the town’s residents realize they are all possible suspects and that a killer is trapped among them.

dcb81fbaccef4dfe86713b0030fb4385.mkv (1.3 GB)



General
Complete name : ./dcb81fbaccef4dfe86713b0030fb4385.mkv
Format : Matroska
Format version : Version 4 / Version 2
File size : 1.26 GiB
Duration : 50 min 25 s
Overall bit rate : 3 582 kb/s
Encoded date : UTC 2019-02-12 11:43:25
Writing application : mkvmerge v28.2.0 ('The Awakening') 64-bit
Writing library : libebml v1.3.6 + libmatroska v1.4.9

Video
ID : 2
Format : AVC
Format/Info : Advanced Video Codec
Format profile : High@L4
Format settings : CABAC / 4 Ref Frames
Format settings, CABAC : Yes
Format settings, RefFrames : 4 frames
Format settings, GOP : M=4, N=50
Codec ID : V_MPEG4/ISO/AVC
Duration : 50 min 25 s
Bit rate : 3 440 kb/s
Width : 1 920 pixels
Height : 1 080 pixels
Display aspect ratio : 16:9
Frame rate mode : Constant
Frame rate : 25.000 FPS
Color space : YUV
Chroma subsampling : 4:2:0
Bit depth : 8 bits
Scan type : Progressive
Bits/(Pixel*Frame) : 0.066
Stream size : 1.21 GiB (96%)
Language : Icelandic
Default : Yes
Forced : No

Audio
ID : 3
Format : AAC
Format/Info : Advanced Audio Codec
Format profile : LC
Codec ID : A_AAC-2
Duration : 50 min 25 s
Bit rate : 140 kb/s
Channel(s) : 2 channels
Channel positions : Front: L R
Sampling rate : 48.0 kHz
Frame rate : 46.875 FPS (1024 SPF)
Compression mode : Lossy
Delay relative to video : -80 ms
Stream size : 50.4 MiB (4%)
Language : Icelandic
Default : Yes
Forced : No

Text
ID : 1
Format : UTF-8
Codec ID : S_TEXT/UTF8
Codec ID/Info : UTF-8 Plain Text
Duration : 48 min 40 s
Bit rate : 42 b/s
Count of elements : 463
Stream size : 15.2 KiB (0%)
Language : English
Default : Yes
Forced : No





Trapped S02E08


Trapped S02E08


Trapped S02E08


Trapped S02E08


Trapped S02E08

All episodes